Скачать через торрент Разборка в Маниле Showdown in Manila Фильм бесплатно в хорошем качестве torrent

Скачивайте на UnionPeer.org фильмы через торрент без регистрации. Новинки кино в хорошем качестве через торрент. На UnionPeer.org можно скачать через торрент фильмы 2014 и 2015 годов. Самые новые фильмы.

Скачать торрент Разборка в Маниле Showdown in Manila бесплатно через .torrent фильм мультфильм сериал

Статистика раздачи
Размер:  1.45 GB   |    Зарегистрирован:  2 года 6 месяцев   |    .torrent скачан:  301 раз   |   
Раздают:  1  
   
загрузка...
 
Автор Сообщение

Galfimbul

avatar Galfimbul


Разборка в Маниле / Showdown in Manila
Год выпуска: 2016
Выпущено: США, Россия / Hollywood Storm
Жанр: боевик
Продолжительность: 01:25:57
Перевод: Профессиональный (полное дублирование)
Cубтитры: нет
Режиссер:
Марк Дакаскос / Mark Dacascos
В ролях:
Александр Невский, Каспер Ван Дин, Кэри-Хироюки Тагава, Марк Дакаскос, Маттиас Хьюз, Синтия Ротрок, Дон «Дракон» Уилсон, Оливье Грюнер, Дмитрий Дюжев, Тиа Каррере, Джейк Макапагал, Иса Кальсадо
Описание:
Частные детективы Ник и Чарли живут и работают в Маниле. Расследование убийства выводит их на след международного террориста по кличке «Призрак», лагерь которого находится в филиппинских джунглях. Не доверяя полиции, Ник и Чарли собирают небольшую команду смельчаков и отправляются в логово «Призрака», которое охраняет армия наемников-головорезов…
Релиз групп <a href="viewtopic.php?t=1677970" class="postLink"> </a> | | IMDB | КиноПоиск | Сэмпл |
Качество: WEB-DLRip [WEB-DL | 1080p | HDCLUB]
Формат: AVI

Видео: 704x368 (1.91:1), 25 fps, XviD build 67 ~2023 kbps avg, 0.31 bit/pixel
Аудио: 48 kHz, AC3 Dolby Digital, 3/2 (L,C,R,l,r) + LFE ch, ~384.00 kbps avg - iTunes Russia
General
Complete name                            : D:\Razborkav_v_Manile_2016_WEB-DLRip_iT_by_Dalemake.avi
Format                                   : AVI
Format/Info                              : Audio Video Interleave
File size                                : 1.45 GiB
Duration                                 : 1h 25mn
Overall bit rate                         : 2 417 Kbps
Writing application                      : VirtualDubMod 1.5.10.3 | www.virtualdub-fr.org || (build 2550/release)
Writing library                          : VirtualDubMod build 2550/release

Video
ID                                       : 0
Format                                   : MPEG-4 Visual
Format profile                           : Advanced Simple@L5
Format settings, BVOP                    : 1
Format settings, QPel                    : No
Format settings, GMC                     : No warppoints
Format settings, Matrix                  : Custom
Codec ID                                 : XVID
Codec ID/Hint                            : XviD
Duration                                 : 1h 25mn
Bit rate                                 : 2 024 Kbps
Width                                    : 704 pixels
Height                                   : 368 pixels
Display aspect ratio                     : 1.913
Frame rate                               : 25.000 fps
Color space                              : YUV
Chroma subsampling                       : 4:2:0
Bit depth                                : 8 bits
Scan type                                : Progressive
Compression mode                         : Lossy
Bits/(Pixel*Frame)                       : 0.312
Stream size                              : 1.21 GiB (84%)
Writing library                          : XviD 67

Audio
ID                                       : 1
Format                                   : AC-3
Format/Info                              : Audio Coding 3
Mode extension                           : CM (complete main)
Format settings, Endianness              : Big
Codec ID                                 : 2000
Duration                                 : 1h 25mn
Bit rate mode                            : Constant
Bit rate                                 : 384 Kbps
Channel(s)                               : 6 channels
Channel positions                        : Front: L C R, Side: L R, LFE
Sampling rate                            : 48.0 KHz
Frame rate                               : 31.250 fps (1536 spf)
Compression mode                         : Lossy
Stream size                              : 236 MiB (16%)
Alignment                                : Split accross interleaves
Interleave, duration                     : 40 ms (1.00 video frame)
Interleave, preload duration             : 500 ms
<a href="viewtopic.php?t=5193446" class="postLink">...5193446</a>
http://screenshotcomparison.com/comparison/166255
<a href="viewtopic.php?t=5193827" class="postLink">...5193827</a>
http://screenshotcomparison.com/comparison/166256



Трекер:  [ 03-Апр-2016 07:00 ]

  

Скачать .torrent

Размер .torrent файла 15 KB


Размер: 1.45 GB
Хэш (hash) релиза: 41446b162a021835563d4d49756d7b6ea48d565d
Подписка на обновления:

Торренты, похожие на Разборка в Маниле Showdown in Manila скачать торрент

Форум Название Автор Размер S L Добавлен
Зарубежные фильмы до 2016 ·· Разборка в Маниле / Showdown in Manila (Марк Дакаскос / Mark Dacascos) [2016, США, Россия, боевик, Blu-ray disc 1080i] [RUS] Dub Galfimbul 1972532748318.37 GB 0 0 1463423308

21:28

16-Май-16

Зарубежные фильмы 2016-2018 (Новинки зарубежного кино) ·· Разборка в Маниле / Showdown in Manila (Марк Дакаскос / Mark Dacascos) [2016, США, Россия, боевик, BDRip-AVC] Dub Galfimbul 22265087542.07 GB 0 0 1463403277

15:54

16-Май-16

Зарубежные фильмы 2016-2018 (Новинки зарубежного кино) ·· Разборка в Маниле / Showdown in Manila (Марк Дакаскос / Mark Dacascos) [2016, США, Россия, Боевик, BDRip 720p] Лицензия Galfimbul 44919603414.18 GB 0 0 1463215366

11:42

14-Май-16

Зарубежные фильмы 2016-2018 (Новинки зарубежного кино) ·· Разборка в Маниле / Showdown in Manila (Марк Дакаскос / Mark Dacascos) [2016, США, Россия, Боевик, WEB-DLRip] Dub (iTunes) Galfimbul 782841856747 MB 0 0 1459659809

08:03

3-Апр-16

Зарубежные фильмы до 2016 ·· Разборка в Маниле / Showdown in Manila (Марк Дакаскос / Mark Dacascos) [2016, США, Россия, Боевик, WEB-DL 1080p] Dub + Original Eng Galfimbul 36830861083.43 GB 0 0 1458987706

13:21

26-Мар-16

Зарубежные фильмы 2016-2018 (Новинки зарубежного кино) ·· Разборка в Маниле / Showdown in Manila (Марк Дакаскос) [2016, боевик, WEB-DLRip] iTunes Galfimbul 14700154881.37 GB 0 0 1458505104

23:18

20-Мар-16

Еще никто не оставлял запись к записи скачать торрент Разборка в Маниле Showdown in Manila . Будь первым!

!Обратная связь