Скачать через торрент Охота на работу Get a Job Фильм бесплатно в хорошем качестве torrent

Скачивайте на UnionPeer.org фильмы через торрент без регистрации. Новинки кино в хорошем качестве через торрент. На UnionPeer.org можно скачать через торрент фильмы 2014 и 2015 годов. Самые новые фильмы.

Скачать торрент Охота на работу Get a Job бесплатно через .torrent фильм мультфильм сериал

Статистика раздачи
Размер:  1.45 GB   |    Зарегистрирован:  2 года 6 месяцев   |    .torrent скачан:  338 раз   |   
Раздают:  1  
   
загрузка...
 
Автор Сообщение

Galfimbul

avatar Galfimbul


Охота на работу / Get a Job

Страна: США
Жанр: Комедия
Год выпуска: 2016
Продолжительность: 01:22:45

Перевод: Любительский (многоголосый закадровый) RecentFilms
Cубтитры: нет
Режиссер: Дилан Кидд / Dylan Kidd

В ролях: Элисон Бри, Анна Кендрик, Брайан Крэнстон, Майлз Теллер, Николас Браун, Марша Гей Харден, Кристофер Минц-Плассе, Джон К. МакГинли, Хорхе Гарсиа, Рави Патель

Описание: Сюжет ленты строится вокруг выпускника колледжа и его друзей. Молодые специалисты стоят на распутье, чем заниматься, зачем и тому ли они учились. В стране Экономический кризис, а молодежь хочет отрываться.

Сэмпл: http://multi-up.com/1095901

Качество видео: WEB-DLRip
Формат видео: AVI

Видео: 720x400 (1.80:1), 23.976 fps, XviD build 73 ~2315 kbps avg, 0.34 bit/pixel
Аудио: 48 kHz, AC3 Dolby Digital, 2/0 (L,R) ch, ~192 kbps
Формат : AVI
Формат/Информация : Audio Video Interleave
Размер файла : 1,45 Гбайт
Продолжительность : 1 ч. 22 м.
Общий поток : 2517 Кбит/сек
Программа кодирования : VirtualDubMod 1.5.10.3 | www.virtualdub-fr.org || (build 2550/release)
Библиотека кодирования : VirtualDubMod build 2550/release

Видео
Идентификатор : 0
Формат : MPEG-4 Visual
Профиль формата : Advanced Simple@L5
Параметр BVOP формата : 1
Параметр QPel формата : Нет
Параметр GMC формата : Без точки перехода
Параметр матрицы формата : Выборочная
Идентификатор кодека : XVID
Идентификатор кодека/Подсказка : XviD
Продолжительность : 1 ч. 22 м.
Битрейт : 2315 Кбит/сек
Ширина : 720 пикселей
Высота : 400 пикселей
Соотношение сторон : 16:9
Частота кадров : 23,976 (23976/1000) кадра/сек
Цветовое пространство : YUV
Субдискретизация насыщенности : 4:2:0
Битовая глубина : 8 бит
Тип развёртки : Прогрессивная
Метод сжатия : С потерями
Бит/(Пиксели*Кадры) : 0.335
Размер потока : 1,34 Гбайт (92%)
Библиотека кодирования : XviD 73

Аудио
Идентификатор : 1
Формат : AC-3
Формат/Информация : Audio Coding 3
Расширение режима : CM (complete main)
Параметр Endianness формата : Big
Идентификатор кодека : 2000
Продолжительность : 1 ч. 22 м.
Вид битрейта : Постоянный
Битрейт : 192 Кбит/сек
Каналы : 2 канала
Расположение каналов : Front: L R
Частота : 48,0 КГц
Частота кадров : 31,250 кадров/сек (1536 spf)
Метод сжатия : С потерями
Размер потока : 114 Мбайт (8%)
Выравнивание : Разделение по промежуткам
Продолжительность промежутка : 42 мс. (1,00 видеокадр)
Время предзагрузки промежутка : 500 мс.


Трекер:  [ 04-Апр-2016 00:30 ]

  

Скачать .torrent

Размер .torrent файла 15 KB


Размер: 1.45 GB
Хэш (hash) релиза: c1606430d740df15d104b2ed61733fad00019c3c
Подписка на обновления:

Торренты, похожие на Охота на работу Get a Job скачать торрент

Форум Название Автор Размер S L Добавлен
Зарубежные фильмы до 2016 ·· Охота на работу / Get a Job (Дилан Кидд / Dylan Kidd) [2016, США, комедия, BDRip 720p] MVO (Paradox & Omskbird records) + 3x Sub (Rus, Eng) + Original Eng Galfimbul 50793334524.73 GB 0 0 1466769317

14:55

24-Июн-16

Зарубежные фильмы 2016-2018 (Новинки зарубежного кино) ·· Охота на работу / Get a Job (Дилан Кидд / Dylan Kidd) [2016, США, комедия, BDRip-AVC] MVO + Original + Sub (rus, eng) Galfimbul 21950086622.04 GB 0 0 1466645136

04:25

23-Июн-16

Зарубежные фильмы 2016-2018 (Новинки зарубежного кино) ·· Охота на работу / Get a Job (Дилан Кидд / Dylan Kidd) [2016, США, комедия, WEB-DLRip] MVO (RecentFilms) Galfimbul 779493376743 MB 0 0 1461670070

14:27

26-Апр-16

Зарубежные фильмы до 2016 ·· Охота на работу / Get a Job (Дилан Кидд / Dylan Kidd) [2016, США, комедия, WEB-DL 720p] MVO + Original (Eng) Galfimbul 28630919392.67 GB 0 0 1459958971

19:09

6-Апр-16

Зарубежные фильмы 2016-2018 (Новинки зарубежного кино) ·· Охота на работу / Get a Job (Дилан Кидд / Dylan Kidd) [2016, США, Комедия, WEB-DLRip 1080p] Galfimbul 34919956513.25 GB 0 0 1459816895

03:41

5-Апр-16

Еще никто не оставлял запись к записи скачать торрент Охота на работу Get a Job . Будь первым!

!Обратная связь