Скачать через торрент Мегрэ расставляет сети Maigret sets a trap Фильм бесплатно в хорошем качестве torrent

Скачивайте на UnionPeer.org фильмы через торрент без регистрации. Новинки кино в хорошем качестве через торрент. На UnionPeer.org можно скачать через торрент фильмы 2014 и 2015 годов. Самые новые фильмы.

Скачать торрент Мегрэ расставляет сети Maigret sets a trap бесплатно через .torrent фильм мультфильм сериал

Статистика раздачи
Размер:  1.46 GB   |    Зарегистрирован:  2 года 6 месяцев   |    .torrent скачан:  168 раз   |   
Раздают:  1  
   
загрузка...
 
Автор Сообщение

Galfimbul

avatar Galfimbul


Мегрэ расставляет сети / Maigret sets a trap

Страна: Великобритания
Жанр: детектив
Год выпуска: 2016
Продолжительность: 01:26:54

Перевод: Одноголосый закадровый [Project Web Mania]
Cубтитры: нет
Режиссер: Эшли Пирс / Ashley Pearce

В ролях: Роуэн Аткинсон, Эйдан Макардл, Руфус Райт, Софи Майер, Александр Кэмпбелл, Дэвид Доусон, Ребекка Найт, Фиона Шоу

Описание: В Париже происходят убийства молодых женщин. Почерк загадочного убийцы повторяется от преступления к преступлению. Комиссар Мегрэ готов на любой риск, если это поможет поймать маньяка. После очередного убийства, Мегрэ решает заманить преступника в ловушку...

Перевод: М_Васильев
Озвучка: Project Web Mania

За что им большой респект!!!

Сэмпл: http://multi-up.com/1096070

Качество видео: HDTVRip (maigret.sets.a.trap.1080p.hdtv.x264-failed)
Формат видео: AVI

Видео: 720x408 (1.76:1), 25 fps, XviD build 73 ~2259 kbps avg, 0.31 bit/pixel
Аудио: 48 kHz, MPEG Layer 3, 2 ch, ~128.00 kbps avg
Формат : AVI
Формат/Информация : Audio Video Interleave
Размер файла : 1,46 Гбайт
Продолжительность : 1 ч. 26 м.
Общий поток : 2397 Кбит/сек
Программа кодирования : VirtualDubMod 1.5.10.3 (build 2550/release)
Библиотека кодирования : VirtualDubMod build 2550/release

Видео
Идентификатор : 0
Формат : MPEG-4 Visual
Профиль формата : Advanced Simple@L5
Параметр BVOP формата : 1
Параметр QPel формата : Нет
Параметр GMC формата : Без точки перехода
Параметр матрицы формата : Выборочная
Идентификатор кодека : XVID
Идентификатор кодека/Подсказка : XviD
Продолжительность : 1 ч. 26 м.
Битрейт : 2260 Кбит/сек
Ширина : 720 пикселей
Высота : 408 пикселей
Соотношение сторон : 16:9
Частота кадров : 25,000 кадров/сек
Цветовое пространство : YUV
Субдискретизация насыщенности : 4:2:0
Битовая глубина : 8 бит
Тип развёртки : Прогрессивная
Метод сжатия : С потерями
Бит/(Пиксели*Кадры) : 0.308
Размер потока : 1,37 Гбайт (94%)
Библиотека кодирования : XviD 73

Аудио
Идентификатор : 1
Формат : MPEG Audio
Версия формата : Version 1
Профиль формата : Layer 3
Идентификатор кодека : 55
Идентификатор кодека/Подсказка : MP3
Продолжительность : 1 ч. 26 м.
Вид битрейта : Постоянный
Битрейт : 128 Кбит/сек
Каналы : 2 канала
Частота : 48,0 КГц
Метод сжатия : С потерями
Размер потока : 79,6 Мбайт (5%)
Выравнивание : Соединение по промежуткам
Продолжительность промежутка : 40 мс. (1,00 видеокадр)
Время предзагрузки промежутка : 504 мс.


Трекер:  [ 08-Апр-2016 20:00 ]

  

Скачать .torrent

Размер .torrent файла 15 KB


Размер: 1.46 GB
Хэш (hash) релиза: 8c36de8607fef4069ed586c915617cb71de57744
Подписка на обновления:

Торренты, похожие на Мегрэ расставляет сети Maigret sets a trap скачать торрент

Форум Название Автор Размер S L Добавлен
Зарубежные сериалы ·· Мегрэ расставляет сети / Maigret sets a trap (Эшли Пирс) [2016, Великобритания, детектив, HDTVRip-AVC] MVO (RusFilm & BomondFilms) Galfimbul 20637758751.92 GB 0 0 1492811637

00:53

22-Апр-17

Зарубежные фильмы 2016-2018 (Новинки зарубежного кино) ·· Мегрэ расставляет сети / Maigret sets a trap (Эшли Пирс / Ashley Pearce) [2016, Великобритания, детектив, HDTVRip-AVC] Sub Rus + Original Eng Galfimbul 986175873940 MB 0 0 1459371604

00:00

31-Мар-16

Зарубежные фильмы 2016-2018 (Новинки зарубежного кино) ·· Мегрэ расставляет сети / Maigret tend un piège / Maigret Sets a Trap (Жан Деланнуа / Jean Delannoy) [1958, Франция, Италия, драма, криминал, HDTVRip 720p] Galfimbul 10498212151001 MB 0 0 1459781112

17:45

4-Апр-16

Зарубежные фильмы до 2016 ·· Мегрэ расставляет сети / Maigret tend un piège / Maigret Sets a Trap (Жан Деланнуа / Jean Delannoy) [1958, Франция, Италия, драма, криминал, BDRip 1080p] [GER Transfer] DVO + MVO + 2x Sub (Rus, Eng) + Original Fre Galfimbul 1473363393013.72 GB 0 0 1428246773

18:12

5-Апр-15

Еще никто не оставлял запись к записи скачать торрент Мегрэ расставляет сети Maigret sets a trap . Будь первым!

!Обратная связь