Скачать через торрент Доверие The Trust Фильм бесплатно в хорошем качестве torrent

Скачивайте на UnionPeer.org фильмы через торрент без регистрации. Новинки кино в хорошем качестве через торрент. На UnionPeer.org можно скачать через торрент фильмы 2014 и 2015 годов. Самые новые фильмы.

Скачать торрент Доверие The Trust бесплатно через .torrent фильм мультфильм сериал

Статистика раздачи
Размер:  1.46 GB   |    Зарегистрирован:  2 года 6 месяцев   |    .torrent скачан:  258 раз   |   
Раздают:  1  
   
загрузка...
 
Автор Сообщение

Galfimbul

avatar Galfimbul


Доверие / The Trust
Год выхода: 2016
Выпущено: Великобритания / Ingenious Media
Жанр: триллер, криминал
Продолжительность: 01:31:43
Перевод: Любительский (двухголосый закадровый) Parovoz Production
Субтитры: нет
Режиссер:
Алекс Брюэр / Alex Brewer, Бенжамин Брюэр / Benjamin Brewer
В ролях:
Николас Кейдж, Элайджа Вуд, Джерри Льюис, Стивен Уильямс, Скай Феррейра, Кевин Уайзман, Лиза Гарднер, Кристи Беран, Джеффри Ховард, Томми Вегас
О фильме:
Парочка коррумпированных полицейских в отделе улик обнаруживает сейф с нарко-деньгами. Решив похитить тайник, они не подозревают, что вступают в игру за собственные жизни.
Релиз групп <a href="viewtopic.php?t=1677970" class="postLink"> </a> | | IMDB | КиноПоиск | Сэмпл |
Качество: BDRip [The.Trust.2016.1080p.BluRay.REMUX.AVC.DTS-HD.MA.5.1-FGT]
Формат: AVI

Видео: 704x384 (1.83:1), 23.976 fps, XviD build 67 ~2037 kbps avg, 0.31 bit/pixel
Аудио: 48 kHz, AC3 Dolby Digital, 2/0 (L,R) ch, ~224 kbps
За аудиодорожку спасибо <a href="profile.php?mode=viewprofile&u=16452429" class="postLink">JIuI3epIIyJIb</a>. Рекламы нет!
General
Complete name                            : D:\Doverie_2016_BDRip_DVO_by_Dalemake.avi
Format                                   : AVI
Format/Info                              : Audio Video Interleave
File size                                : 1.46 GiB
Duration                                 : 1h 31mn
Overall bit rate                         : 2 271 Kbps
Writing application                      : VirtualDubMod 1.5.10.3 | www.virtualdub-fr.org || (build 2550/release)
Writing library                          : VirtualDubMod build 2550/release

Video
ID                                       : 0
Format                                   : MPEG-4 Visual
Format profile                           : Advanced Simple@L5
Format settings, BVOP                    : 1
Format settings, QPel                    : No
Format settings, GMC                     : No warppoints
Format settings, Matrix                  : Custom
Codec ID                                 : XVID
Codec ID/Hint                            : XviD
Duration                                 : 1h 31mn
Bit rate                                 : 2 038 Kbps
Width                                    : 704 pixels
Height                                   : 384 pixels
Display aspect ratio                     : 1.85:1
Frame rate                               : 23.976 (23976/1000) fps
Color space                              : YUV
Chroma subsampling                       : 4:2:0
Bit depth                                : 8 bits
Scan type                                : Progressive
Compression mode                         : Lossy
Bits/(Pixel*Frame)                       : 0.314
Stream size                              : 1.31 GiB (90%)
Writing library                          : XviD 67

Audio
ID                                       : 1
Format                                   : AC-3
Format/Info                              : Audio Coding 3
Mode extension                           : CM (complete main)
Format settings, Endianness              : Big
Codec ID                                 : 2000
Duration                                 : 1h 31mn
Bit rate mode                            : Constant
Bit rate                                 : 224 Kbps
Channel(s)                               : 2 channels
Channel positions                        : Front: L R
Sampling rate                            : 48.0 KHz
Frame rate                               : 31.250 fps (1536 spf)
Compression mode                         : Lossy
Stream size                              : 147 MiB (10%)
Alignment                                : Split accross interleaves
Interleave, duration                     : 42 ms (1.00 video frame)
Interleave, preload duration             : 500 ms
<a href="viewtopic.php?t=5205477" class="postLink">...5205477</a>
http://screenshotcomparison.com/comparison/168738



Трекер:  [ 09-Апр-2016 22:30 ]

  

Скачать .torrent

Размер .torrent файла 15 KB


Размер: 1.46 GB
Хэш (hash) релиза: 05194924ddb39044bafadde1a2de64020a2bfd1b
Подписка на обновления:

Торренты, похожие на Доверие The Trust скачать торрент

Форум Название Автор Размер S L Добавлен
Зарубежные фильмы 2016-2018 (Новинки зарубежного кино) ·· Доверие / The Trust (Алекс Брюэр / Alex Brewer, Бенжамин Брюэр / Benjamin Brewer) [2016, Великобритания, Триллер, криминал, HDRip] DVO Galfimbul 785700864749 MB 0 0 1461670022

14:27

26-Апр-16

Зарубежные фильмы 2016-2018 (Новинки зарубежного кино) ·· Доверие / The Trust (Алекс Брюэр / Alex Brewer, Бенжамин Брюэр / Benjamin Brewer) [2016, Великобритания, Триллер, криминал, BDRemux 1080p] Galfimbul 2507827108223.36 GB 0 0 1460290230

15:10

10-Апр-16

Зарубежные фильмы 2016-2018 (Новинки зарубежного кино) ·· Доверие / The Trust (Алекс Брюэр / Alex Brewer, Бенжамин Брюэр / Benjamin Brewer) [2016, Великобритания, Триллер, криминал, BDRip 1080p] Galfimbul 90797379648.46 GB 0 0 1460274798

10:53

10-Апр-16

Зарубежные фильмы 2016-2018 (Новинки зарубежного кино) ·· Доверие / The Trust (Alex Brewer, Бенжамин Брюэр) [2016, триллер, криминал, BDRip 720p] Galfimbul 61503560065.73 GB 0 0 1460274776

10:52

10-Апр-16

Зарубежные фильмы 2016-2018 (Новинки зарубежного кино) ·· Доверие / The Trust (Алекс Брюэр, Бенжамин Брюэр) [2016, Великобритания, триллер, криминал, HDRip] MVO [Parovoz Production] + Original Eng Galfimbul 15605760001.45 GB 0 0 1460227176

21:39

9-Апр-16

Зарубежные фильмы 2016-2018 (Новинки зарубежного кино) ·· Доверие / The Trust (Alex Brewer, Бенжамин Брюэр) [2016, триллер, криминал, HDRip] Galfimbul 15605760001.45 GB 0 0 1460206066

15:47

9-Апр-16

Документальные фильмы и телепередачи ·· Билли Джоэл. Дело доверия: Окно в Россию / Billy Joel. A Matter of Trust: The Bridge to Russia (Джим Браун / Jim Brown) [2014, Документальный, музыка, рок, HDTVRip] MVO (1 канал) Galfimbul 11729489921.09 GB 0 0 1471183605

17:06

14-Авг-16

Документальные фильмы и телепередачи ·· Билли Джоэл. Дело доверия. Мост в Россию / Окно в Россию / Billy Joel: A Matter of Trust. The Bridge to Russia. A Documentary Film (Джим Браун / Jim Brown) [2013, документальный, музыка, DVB] Galfimbul 18211881881.7 GB 0 0 1420637681

16:34

7-Янв-15

Еще никто не оставлял запись к записи скачать торрент Доверие The Trust . Будь первым!

!Обратная связь