Скачать через торрент Падение Крэйсов The Fall of the Krays Фильм бесплатно в хорошем качестве torrent

Скачивайте на UnionPeer.org фильмы через торрент без регистрации. Новинки кино в хорошем качестве через торрент. На UnionPeer.org можно скачать через торрент фильмы 2014 и 2015 годов. Самые новые фильмы.

Скачать торрент Падение Крэйсов The Fall of the Krays бесплатно через .torrent фильм мультфильм сериал

Статистика раздачи
Размер:  1.44 GB   |    Зарегистрирован:  2 года 6 месяцев   |    .torrent скачан:  56 раз   |   
Раздают:  1  
   
загрузка...
 
Автор Сообщение

Galfimbul

avatar Galfimbul


Падение Крэйсов / The Fall of the Krays

Страна: Великобритания
Жанр: криминал
Год выпуска: 2016
Продолжительность: 01:51:35

Перевод: Одноголосый (закадровый)
Cубтитры: нет
Оригинальная аудиодорожка: нет

Режиссер: Закари Адлер / Zackary Adler

В ролях: Адриан Буше, Кевин Лесли, Джордж Уэбстер, Алекса Булл, Саймон Коттон, Пол Блэкуэлл, Джош Майерс, Филип Ховард, Йен Кейр Аттард, Ричард Бэнкс

Описание: Взгляд близкого друга на историю братьев-близнецов, выросших в неизвестной спецшколе и ставших самыми опасными людьми в Британии, о их подъеме на криминальный олимп и падении...
Группа желает всем приятного просмотра!Качество видео: HDRip [BDRip 1080p]
Формат видео: AVI
Видео: 720x400 (1.80:1), 25 fps, XviD build 65 ~1653 kbps avg, 0.23 bit/pixel
Аудио: 48 kHz, AC3 Dolby Digital, 2/0 (L,R) ch, ~192 kbps

Сэмпл: http://multi-up.com/1096113
<a href="viewtopic.php?t=5193487" class="postLink">...5193487</a>
# сомнительно
General
Complete name : C:\Users\Никита\Desktop\падение крейсов.avi
Format : AVI
Format/Info : Audio Video Interleave
File size : 1.44 GiB
Duration : 1h 51mn
Overall bit rate : 1 855 Kbps
Writing application : VirtualDubMod 1.5.10.2 (build 2540/release)
Writing library : VirtualDubMod build 2540/release

Video
ID : 0
Format : MPEG-4 Visual
Format profile : Advanced Simple@L5
Format settings, BVOP : 2
Format settings, QPel : No
Format settings, GMC : No warppoints
Format settings, Matrix : Custom
Codec ID : XVID
Codec ID/Hint : XviD
Duration : 1h 51mn
Bit rate : 1 653 Kbps
Width : 720 pixels
Height : 400 pixels
Display aspect ratio : 16:9
Frame rate : 25.000 fps
Color space : YUV
Chroma subsampling : 4:2:0
Bit depth : 8 bits
Scan type : Progressive
Compression mode : Lossy
Bits/(Pixel*Frame) : 0.230
Stream size : 1.28 GiB (89%)
Writing library : XviD 65

Audio
ID : 1
Format : AC-3
Format/Info : Audio Coding 3
Mode extension : CM (complete main)
Format settings, Endianness : Big
Codec ID : 2000
Duration : 1h 51mn
Bit rate mode : Constant
Bit rate : 192 Kbps
Channel(s) : 2 channels
Channel positions : Front: L R
Sampling rate : 48.0 KHz
Frame rate : 31.250 fps (1536 spf)
Compression mode : Lossy
Stream size : 153 MiB (10%)
Alignment : Split accross interleaves
Interleave, duration : 40 ms (1.00 video frame)
Interleave, preload duratio : 500 ms


Трекер:  [ 09-Апр-2016 23:00 ]

  

Скачать .torrent

Размер .torrent файла 15 KB


Размер: 1.44 GB
Хэш (hash) релиза: 1355e5254c8a90ddb3b6dd6580f5e71f13e7821a
Подписка на обновления:

Еще никто не оставлял запись к записи скачать торрент Падение Крэйсов The Fall of the Krays . Будь первым!

!Обратная связь