Скачать через торрент Сезонники Temps Фильм бесплатно в хорошем качестве torrent

Скачивайте на UnionPeer.org фильмы через торрент без регистрации. Новинки кино в хорошем качестве через торрент. На UnionPeer.org можно скачать через торрент фильмы 2014 и 2015 годов. Самые новые фильмы.

Скачать торрент Сезонники Temps бесплатно через .torrent фильм мультфильм сериал

Статистика раздачи
Размер:  1.46 GB   |    Зарегистрирован:  2 года 6 месяцев   |    .torrent скачан:  95 раз   |   
Раздают:  1  
   
загрузка...
 
Автор Сообщение

Galfimbul

avatar Galfimbul


Сезонники / Temps

Страна: США
Жанр: Мелодрама, комедия
Год выпуска: 2016
Продолжительность: 01:25:30

Перевод: Любительский (многоголосый закадровый) RecentFilms
Cубтитры: нет
Режиссер: Райан Сэйдж / Ryan Sage

В ролях: Грант Розенмейер, Линдси Шоу, Рейд Юинг, Иден Шер, Кристофер Бауэр, Алекса Гьюффре, Дэвид Карзелл, Коринн Чуи, Селия Финкельштейн

Описание: Сюжет романтической, комедийной мелодрамы "Temps" основан на истории тихого, приятного молодого человека, работающего помощником в офисе, не стремящегося к карьерному росту и высокому заработку, благодаря чему у него складываются хорошие взаимоотношения к окружающими. Знакомство с новой сотрудницей изменяет его отношение к себе и коллегам, амбициозная, серьезно настроенная Стефани энергично пробивающаяся по служебной лестнице сводит паря с ума, заставляя пересмотреть приоритеты и заняться собственным развитием.

Сэмпл: http://multi-up.com/1097888

Качество видео: WEB-DLRip
Формат видео: AVI

Видео: 720x304 (2.37:1), 23.976 fps, XviD build 73 ~2234 kbps avg, 0.43 bit/pixel
Аудио: 48 kHz, AC3 Dolby Digital, 2/0 (L,R) ch, ~192 kbps
Формат : AVI
Формат/Информация : Audio Video Interleave
Размер файла : 1,46 Гбайт
Продолжительность : 1 ч. 25 м.
Общий поток : 2436 Кбит/сек
Программа кодирования : VirtualDubMod 1.5.10.3 | www.virtualdub-fr.org || (build 2550/release)
Библиотека кодирования : VirtualDubMod build 2550/release

Видео
Идентификатор : 0
Формат : MPEG-4 Visual
Профиль формата : Advanced Simple@L5
Параметр BVOP формата : 1
Параметр QPel формата : Нет
Параметр GMC формата : Без точки перехода
Параметр матрицы формата : Выборочная
Идентификатор кодека : XVID
Идентификатор кодека/Подсказка : XviD
Продолжительность : 1 ч. 25 м.
Битрейт : 2235 Кбит/сек
Ширина : 720 пикселей
Высота : 304 пикселя
Соотношение сторон : 2,35:1
Частота кадров : 23,976 (23976/1000) кадра/сек
Цветовое пространство : YUV
Субдискретизация насыщенности : 4:2:0
Битовая глубина : 8 бит
Тип развёртки : Прогрессивная
Метод сжатия : С потерями
Бит/(Пиксели*Кадры) : 0.426
Размер потока : 1,33 Гбайт (92%)
Библиотека кодирования : XviD 73

Аудио
Идентификатор : 1
Формат : AC-3
Формат/Информация : Audio Coding 3
Расширение режима : CM (complete main)
Параметр Endianness формата : Big
Идентификатор кодека : 2000
Продолжительность : 1 ч. 25 м.
Вид битрейта : Постоянный
Битрейт : 192 Кбит/сек
Каналы : 2 канала
Расположение каналов : Front: L R
Частота : 48,0 КГц
Частота кадров : 31,250 кадров/сек (1536 spf)
Метод сжатия : С потерями
Размер потока : 117 Мбайт (8%)
Выравнивание : Разделение по промежуткам
Продолжительность промежутка : 42 мс. (1,00 видеокадр)
Время предзагрузки промежутка : 500 мс.


Трекер:  [ 17-Апр-2016 02:00 ]

  

Скачать .torrent

Размер .torrent файла 15 KB


Размер: 1.46 GB
Хэш (hash) релиза: 7a409c401702c8e7e8085625c18c2aab9cec5bc9
Подписка на обновления:

Еще никто не оставлял запись к записи скачать торрент Сезонники Temps . Будь первым!

!Обратная связь