Скачать через торрент Квантовый разлом Quantum Break Фильм бесплатно в хорошем качестве torrent

Скачивайте на UnionPeer.org фильмы через торрент без регистрации. Новинки кино в хорошем качестве через торрент. На UnionPeer.org можно скачать через торрент фильмы 2014 и 2015 годов. Самые новые фильмы.

Скачать торрент Квантовый разлом Quantum Break бесплатно через .torrent фильм мультфильм сериал

Статистика раздачи
Размер:  5.06 GB   |    Зарегистрирован:  2 года 6 месяцев   |    .torrent скачан:  1907 раз   |   
Раздают:  1  
   
загрузка...
 
Автор Сообщение

Galfimbul

avatar Galfimbul


Оригинальное название: Quantum Break
Год выпуска: 2016 г.
Разработчик игры: Remedy Entertainment (Финляндия)
Создатель видео: GamingWalkDi
Жанр: Игрофильм
Продолжительность: 06:38:05
Перевод: Дублированный [Официальный]
Субтитры: Русский хардсаб [Экранные надписи и тп.]
Режиссер: Стобе Харью

В ролях: Шон Эшмор, Эйдан Гиллен, Доминик Монахэн, Лэнс Реддик, Кортни Хоуп, Патрик Хьюсингер, Амелия Роуз Блэйр, Шон Дурри и др.
Описание:
Северо-Восточный Университет США Riverport, где эксперимент со временем прошёл крайне неудачно, и теперь все 3 главных персонажа игры — Джек Джойс (Шон Эшмор), Бет Уайлдер (Кортни Хоуп) и Пол Сайрин (Эйдан Гиллен), получили необычные способности. Например, Пол Серин обладает сверхспособностью, позволяющей видеть иные варианты развития событий и альтернативное будущее, а Джек и Бет могут останавливать время.

Дополнительная информация:
Данное видео позиционируется как ИГРОФИЛЬМ (без комментариев). В игрофильме присутствуют все катсцены, весь геймплей и весь live-action сериал из игры.


Качество: WEBRip 720p
Формат: MP4
Видео: MPEG-4 AVC Video (H.264) / 1280х720 / 1691 kbps / 29.970 fps
Аудио: AAC, 2 channels, 44.1 kHz, 128 kbps
General
Complete name : Quantum.Break.2016.D.WEBRip.720p.mp4
Format : MPEG-4
Format profile : Base Media / Version 2
Codec ID : mp42
File size : 5.06 GiB
Duration : 6h 38mn
Overall bit rate mode : Variable
Overall bit rate : 1 821 Kbps
Encoded date : UTC 2016-04-09 15:21:36
Tagged date : UTC 2016-04-09 15:21:36
gsst : 0
gstd : 23885717

Video
ID : 1
Format : AVC
Format/Info : Advanced Video Codec
Format profile : Main@L3.1
Format settings, CABAC : Yes
Format settings, ReFrames : 3 frames
Codec ID : avc1
Codec ID/Info : Advanced Video Coding
Duration : 6h 38mn
Bit rate : 1 691 Kbps
Width : 1 280 pixels
Height : 720 pixels
Display aspect ratio : 16:9
Frame rate mode : Constant
Frame rate : 29.970 fps
Color space : YUV
Chroma subsampling : 4:2:0
Bit depth : 8 bits
Scan type : Progressive
Bits/(Pixel*Frame) : 0.061
Stream size : 4.70 GiB (93%)
Title : ISO Media file produced by Google Inc.
Encoded date : UTC 2016-04-09 15:21:36
Tagged date : UTC 2016-04-09 15:21:36

Audio
ID : 2
Format : AAC
Format/Info : Advanced Audio Codec
Format profile : LC
Codec ID : 40
Duration : 6h 38mn
Bit rate mode : Variable
Bit rate : 126 Kbps
Channel(s) : 2 channels
Channel positions : Front: L R
Sampling rate : 44.1 KHz
Compression mode : Lossy
Stream size : 358 MiB (7%)
Title : ISO Media file produced by Google Inc.
Encoded date : UTC 2016-04-09 15:21:36
Tagged date : UTC 2016-04-09 15:21:36




Трекер:  [ 19-Апр-2016 23:30 ]

  

Скачать .torrent

Размер .torrent файла 25 KB


Размер: 5.06 GB
Хэш (hash) релиза: 86bafbcff853bee1863b1827e4e60804cc7c2505
Подписка на обновления:

agentxbox

Отличный релиз!!!!5+++

Хотите добавить комментарий к записи скачать торрент Квантовый разлом Quantum Break

!Обратная связь