Скачать через торрент Штат Блю Маунтин: Восстание Тадлэнда Blue Mountain State: The Rise of Thadland Фильм бесплатно в хорошем качестве torrent

Скачивайте на UnionPeer.org фильмы через торрент без регистрации. Новинки кино в хорошем качестве через торрент. На UnionPeer.org можно скачать через торрент фильмы 2014 и 2015 годов. Самые новые фильмы.

Скачать торрент Штат Блю Маунтин: Восстание Тадлэнда Blue Mountain State: The Rise of Thadland бесплатно через .torrent фильм мультфильм сериал

Статистика раздачи
Размер:  1.46 GB   |    Зарегистрирован:  2 года 5 месяцев   |    .torrent скачан:  76 раз   |   
Раздают:  1  
   
загрузка...
 
Автор Сообщение

Galfimbul

avatar Galfimbul


Блю Маунтин Стэйт: Рождение ТэдлендаBlue Mountain State: The Rise of Thadland
Год выпуска: 2016
Страна: США
Жанр: комедия
Продолжительность: 01:30:20
Перевод: Одноголосый закадровый Arkadiy
Режиссёр: Лев Л. Спиро / Lev L. Spiro
В ролях: Алан Ричсон, Дерин Брукс, Джеймс Кейд, Боб Рамзи, Романски, Френки Шо, Омари Ньютон, Эд Маринаро, Дени Джоунз, Эд Аматрудо, Джимми Тетро, Барри Ретклифф, Сэм Джонс III и др.
Описание: Когда декан университета Блю Маунтин грозится продать дом университетской команды «Козлы», Алекс устраивает Таду вечеринку его мечты с целью убедить последнего выкупить этот дом.

Sample
Перевод и озвучание: Arkadiy
Работа со звуком: BS666
Рип: whip93
Качество: WEB-DLRip-AVC (источник: / WEB-DL / 720p)
Формат: MKV
Видео: x264, 1024x432 (2.40:1), 23.976 fps, ~1544 kbps
Аудио #1: Russian 48.0 KHz, AC3, 6 channels, 384 Kbps |Arkadiy|
Аудио #2: English 48.0 KHz, AC3, 6 channels, 384 Kbps |Original|
Субтитры: русские (forced, full)
General
Unique ID : 217838380633830472734807312954127568593 (0xA3E22562380B7DD1ADFCE2D3CB104ED1)
Complete name : F:\BMS.The.Rise.of.Thadland.2016.WEB-DLRip-AVC.x264.AC3.-CasStudio.mkv
Format : Matroska
Format version : Version 4 / Version 2
File size : 1.46 GiB
Duration : 1h 30mn
Overall bit rate mode : Variable
Overall bit rate : 2 313 Kbps
Movie name : Blue Mountain State: The Rise of Thadland (2016) - Release by CasStudio
Encoded date : UTC 2016-04-20 09:07:28
Writing application : mkvmerge v6.1.0 ('Old Devil') built on Mar 4 2013 09:10:42
Writing library : libebml v1.3.0 + libmatroska v1.4.0
Attachements : cover_bms.jpg

Video
ID : 1
Format : AVC
Format/Info : Advanced Video Codec
Format profile : High@L4.1
Format settings, CABAC : Yes
Format settings, ReFrames : 12 frames
Codec ID : V_MPEG4/ISO/AVC
Duration : 1h 30mn
Bit rate mode : Variable
Bit rate : 1 544 Kbps
Maximum bit rate : 4 000 Kbps
Width : 1 024 pixels
Height : 432 pixels
Display aspect ratio : 2.40:1
Frame rate mode : Constant
Frame rate : 23.976 fps
Color space : YUV
Chroma subsampling : 4:2:0
Bit depth : 8 bits
Scan type : Progressive
Bits/(Pixel*Frame) : 0.146
Stream size : 968 MiB (65%)
Title : Encoded by whip93
Writing library : x264 core 142 r2431 ac76440
Encoding settings : cabac=1 / ref=12 / deblock=1:-2:-2 / analyse=0x3:0x113 / me=umh / subme=11 / psy=1 / psy_rd=1.00:0.00 / mixed_ref=1 / me_range=48 / chroma_me=1 / trellis=2 / 8x8dct=1 / cqm=0 / deadzone=21,11 / fast_pskip=0 / chroma_qp_offset=-5 / threads=12 / lookahead_threads=3 / sliced_threads=0 / nr=0 / decimate=1 / interlaced=0 / bluray_compat=0 / constrained_intra=0 / bframes=13 / b_pyramid=2 / b_adapt=2 / b_bias=0 / direct=1 / weightb=1 / open_gop=0 / weightp=2 / keyint=240 / keyint_min=22 / scenecut=40 / intra_refresh=0 / rc_lookahead=60 / rc=2pass / mbtree=1 / bitrate=1544 / ratetol=1.0 / qcomp=0.80 / qpmin=0 / qpmax=69 / qpstep=4 / cplxblur=20.0 / qblur=0.5 / vbv_maxrate=4000 / vbv_bufsize=14000 / nal_hrd=vbr / filler=0 / ip_ratio=1.40 / aq=1:1.00
Language : English
Default : Yes
Forced : No
Color range : Limited
Color primaries : BT.709
Transfer characteristics : BT.709
Matrix coefficients : BT.709

Audio #1
ID : 2
Format : AC-3
Format/Info : Audio Coding 3
Mode extension : CM (complete main)
Format settings, Endianness : Big
Codec ID : A_AC3
Duration : 1h 30mn
Bit rate mode : Constant
Bit rate : 384 Kbps
Channel(s) : 6 channels
Channel positions : Front: L C R, Side: L R, LFE
Sampling rate : 48.0 KHz
Bit depth : 16 bits
Compression mode : Lossy
Stream size : 248 MiB (17%)
Title : AVO (Arkadiy)
Language : Russian
Default : Yes
Forced : No

Audio #2
ID : 3
Format : AC-3
Format/Info : Audio Coding 3
Mode extension : CM (complete main)
Format settings, Endianness : Big
Codec ID : A_AC3
Duration : 1h 30mn
Bit rate mode : Constant
Bit rate : 384 Kbps
Channel(s) : 6 channels
Channel positions : Front: L C R, Side: L R, LFE
Sampling rate : 48.0 KHz
Bit depth : 16 bits
Compression mode : Lossy
Stream size : 248 MiB (17%)
Title : Original
Language : English
Default : No
Forced : No

Text #1
ID : 4
Format : UTF-8
Codec ID : S_TEXT/UTF8
Codec ID/Info : UTF-8 Plain Text
Title : Forced
Language : Russian
Default : Yes
Forced : Yes

Text #2
ID : 5
Format : UTF-8
Codec ID : S_TEXT/UTF8
Codec ID/Info : UTF-8 Plain Text
Title : Full
Language : Russian
Default : No
Forced : No

Menu
00:00:00.000 : en:Chapter 1
00:10:14.000 : en:Chapter 2
00:20:37.000 : en:Chapter 3
00:30:22.000 : en:Chapter 4
00:42:42.000 : en:Chapter 5
00:52:37.000 : en:Chapter 6
01:02:58.000 : en:Chapter 7
01:13:50.000 : en:Chapter 8
01:21:15.000 : en:Chapter 9



Трекер:  [ 20-Апр-2016 18:00 ]

  

Скачать .torrent

Размер .torrent файла 59 KB


Размер: 1.46 GB
Хэш (hash) релиза: 138f3e674f7b6874517a352f94296f0877189eb4
Подписка на обновления:

Торренты, похожие на Штат Блю Маунтин: Восстание Тадлэнда Blue Mountain State: The Rise of Thadland скачать торрент

Форум Название Автор Размер S L Добавлен
Зарубежные фильмы 2016-2018 (Новинки зарубежного кино) ·· Блю Маунтин Стэйт: Рождение Тэдленда / Штат Блу Маунтин: Восстание Тадлэнда / Blue Mountain State: The Rise of Thadland (Лев Л. Спиро / Lev L. Spiro) [2016, США, Комедия, Спорт, WEB-DLRip] VO (Arkadiy) Galfimbul 15645906731.46 GB 0 0 1461669970

14:26

26-Апр-16

Еще никто не оставлял запись к записи скачать торрент Штат Блю Маунтин: Восстание Тадлэнда Blue Mountain State: The Rise of Thadland . Будь первым!

!Обратная связь