Скачать через торрент Слушание Confirmation Фильм бесплатно в хорошем качестве torrent

Скачивайте на UnionPeer.org фильмы через торрент без регистрации. Новинки кино в хорошем качестве через торрент. На UnionPeer.org можно скачать через торрент фильмы 2014 и 2015 годов. Самые новые фильмы.

Скачать торрент Слушание Confirmation бесплатно через .torrent фильм мультфильм сериал

Статистика раздачи
Размер:  1.89 GB   |    Зарегистрирован:  2 года 5 месяцев   |    .torrent скачан:  109 раз   |   
Раздают:  1  
   
загрузка...
 
Автор Сообщение

Galfimbul

avatar Galfimbul


Слушание /Confirmation

Год выхода: 2016
Жанр: Драма, история
Режиссер: Рик Фамуйива
В ролях: Керри Вашингтон, Зои Листер Джонс, Эрика Кристенсен, Грэйс Гаммер, Элисон Райт, Эрик Стоунстрит, Джеффри Райт

О фильме:
Политический скандал 1991 года, когда на слушании по назначению Кларенса Томаса в Верховный суд США, бывшая коллега Анита Хилл обвинила судью в сексуальном домогательстве.

Страна: США
Студия: ABC Signature Studios, Groundswell Productions, HBO Films
Продолжительность: 01:45:10.960
Перевод: Профессиональный (многоголосый, закадровый) Amedia

Файл
Кодек: h.264
Качество: HDTVRip 720p Исходник HDTV Amedia Premium HD
Видео: 1280x720 (16:9), 25.000 fps, AVC, ~2184 Kbps, 0.095 bits/pixel
Звук: Русский, 48.0 KHz, AC3, 6 ch, 384 Kbps
Субтитры: нет
Общее
Уникальный идентификатор : 221986735128654556720924627944682531914 (0xA701170D215F2ED58423E1A4DAF3AC4A)
Полное имя : E:FILMSSlushaniye.2016.HDTVRip720p.mkv
Формат : Matroska
Версия формата : Version 4 / Version 2
Размер файла : 1,89 Гбайт
Продолжительность : 1 ч. 45 м.
Общий поток : 2570 Кбит/сек
Дата кодирования : UTC 2016-04-21 18:11:55
Программа кодирования : mkvmerge v9.0.0 ('Power to progress') 64bit
Библиотека кодирования : libebml v1.3.3 + libmatroska v1.4.4

Видео
Идентификатор : 1
Формат : AVC
Формат/Информация : Advanced Video Codec
Профиль формата : High@L4.1
Параметр CABAC формата : Да
Параметр ReFrames формата : 9 кадров
Идентификатор кодека : V_MPEG4/ISO/AVC
Продолжительность : 1 ч. 45 м.
Битрейт : 2184 Кбит/сек
Ширина : 1280 пикселей
Высота : 720 пикселей
Соотношение сторон : 16:9
Режим частоты кадров : Постоянный
Частота кадров : 25,000 кадров/сек
Цветовое пространство : YUV
Субдискретизация насыщенности : 4:2:0
Битовая глубина : 8 бит
Тип развёртки : Прогрессивная
Бит/(Пиксели*Кадры) : 0.095
Размер потока : 1,60 Гбайт (85%)
Библиотека кодирования : x264 core 148 r2638 7599210
Настройки программы : cabac=1 / ref=9 / deblock=1:-3:-3 / analyse=0x3:0x133 / me=umh / subme=11 / psy=1 / psy_rd=1.10:0.15 / mixed_ref=1 / me_range=48 / chroma_me=1 / trellis=2 / 8x8dct=1 / cqm=0 / deadzone=21,11 / fast_pskip=0 / chroma_qp_offset=-3 / threads=8 / lookahead_threads=1 / sliced_threads=0 / nr=0 / decimate=0 / interlaced=0 / bluray_compat=0 / constrained_intra=0 / bframes=8 / b_pyramid=2 / b_adapt=2 / b_bias=0 / direct=3 / weightb=1 / open_gop=0 / weightp=2 / keyint=250 / keyint_min=25 / scenecut=40 / intra_refresh=0 / rc_lookahead=60 / rc=2pass / mbtree=0 / bitrate=2184 / ratetol=1.0 / qcomp=0.60 / qpmin=0 / qpmax=69 / qpstep=4 / cplxblur=20.0 / qblur=0.5 / vbv_maxrate=40000 / vbv_bufsize=50000 / nal_hrd=none / filler=0 / ip_ratio=1.40 / pb_ratio=1.30 / aq=1:1.00
Default : Нет
Forced : Нет
Цветовой диапазон : Limited
Основные цвета : BT.709
Характеристики трансфера : BT.709
Коэффициенты матрицы : BT.709

Аудио
Идентификатор : 2
Формат : AC-3
Формат/Информация : Audio Coding 3
Расширение режима : CM (complete main)
Параметр Endianness формата : Big
Идентификатор кодека : A_AC3
Продолжительность : 1 ч. 45 м.
Вид битрейта : Постоянный
Битрейт : 384 Кбит/сек
Каналы : 6 каналов
Расположение каналов : Front: L C R, Side: L R, LFE
Частота : 48,0 КГц
Частота кадров : 31,250 кадров/сек (1536 spf)
Метод сжатия : С потерями
Размер потока : 289 Мбайт (15%)
Язык : Russian
Default : Да
Forced : Нет
Релиз от: Temperest

Трекер:  [ 26-Апр-2016 08:00 ]

  

Скачать .torrent

Размер .torrent файла 19 KB


Размер: 1.89 GB
Хэш (hash) релиза: 44e97eaa099ce5c7eca0e692cb71048dcdef86e8
Подписка на обновления:

Еще никто не оставлял запись к записи скачать торрент Слушание Confirmation . Будь первым!

!Обратная связь