Скачать через торрент 5-я волна The 5th Wave Фильм бесплатно в хорошем качестве torrent

Скачивайте на UnionPeer.org фильмы через торрент без регистрации. Новинки кино в хорошем качестве через торрент. На UnionPeer.org можно скачать через торрент фильмы 2014 и 2015 годов. Самые новые фильмы.

Скачать торрент 5-я волна The 5th Wave бесплатно через .torrent фильм мультфильм сериал

Статистика раздачи
Размер:  1.41 GB   |    Зарегистрирован:  2 года 5 месяцев   |    .torrent скачан:  113 раз   |   
Раздают:  1  
   
загрузка...
 
Автор Сообщение

Galfimbul

avatar Galfimbul


5-я волна
The 5th Wave

«We Fight Back»

Страна: США
Жанр: фантастика, боевик, триллер, приключения
Год выпуска: 2016
Продолжительность: 01:52:23

Перевод: Профессиональный (полное дублирование) [Лицензия iTunes]
Субтитры: русские (форсированные, полные), украинские (полные), английские (полные, SDH)
Оригинальная аудиодорожка: нет

Режиссер: Дж. Блэйксон / J. Blakeson

В ролях: Хлоя Грейс Морец, Ник Дж. Робинсон, Рон Ливингстон, Мэгги Сифф, Алекс Роу, Мария Белло, Майка Монро, Лив Шрайбер, Закари Артур, Тони Револори, Талита Бейтман, Мэттью Зук

Описание:
Первая волна оставила за собой мглу. От второй успели убежать только самые везучие. Но едва ли можно назвать везучими тех, кто уцелел после третьей. А четвертая волна стерла все человеческие законы, взамен же установила свой, один-единственный: хочешь жить - не верь никому. И вот уже накатывает пятая волна...

Автор рипа: Stalker oK

Сэмпл

Качество видео: BDRip-AVC [HDCLUB / Blu-ray Remux / 1080p]
Формат видео: MKV
Видео кодек: AVC
Аудио кодек: AC3
Видео: 1407 Кбит/сек, 1028x430 (2.40:1), 23,976 кадр/сек, AVC
Аудио: русский, 384 Кбит/сек, 48 КГц, 16 бит, 5.1, AC3
Навигация по главам: есть
Общее
Уникальный идентификатор : 220347417067103613740642449971198903708 (0xA5C55E6E402C3B64BDB851630075459C)
Полное имя : M:\1Rips\The 5th Wave\The.5th.Wave.2016.BDRip-AVC.Dub.1.45Gb.stalkerok.new-team.mkv
Формат : Matroska
Версия формата : Version 4 / Version 2
Размер файла : 1,41 Гбайт
Продолжительность : 1 ч. 52 м.
Общий поток : 1793 Кбит/сек
Название фильма : The 5th Wave (2016) (New-Team) (Rip by Stalker oK)
Дата кодирования : UTC 2016-04-21 17:40:26
Программа кодирования : mkvmerge v8.6.1 ('Flying') 64bit
Библиотека кодирования : libebml v1.3.3 + libmatroska v1.4.4

Видео
Идентификатор : 1
Формат : AVC
Формат/Информация : Advanced Video Codec
Профиль формата : High@L4.1
Параметр CABAC формата : Да
Параметр ReFrames формата : 14 кадров
Идентификатор кодека : V_MPEG4/ISO/AVC
Продолжительность : 1 ч. 52 м.
Битрейт : 1407 Кбит/сек
Ширина : 1028 пикселей
Высота : 430 пикселей
Соотношение сторон : 2,40:1
Режим частоты кадров : Постоянный
Частота кадров : 23,976 (24000/1001) кадра/сек
Цветовое пространство : YUV
Субдискретизация насыщенности : 4:2:0
Битовая глубина : 8 бит
Тип развёртки : Прогрессивная
Бит/(Пиксели*Кадры) : 0.133
Размер потока : 1,10 Гбайт (78%)
Заголовок : The 5th Wave (2016) (New-Team) (Rip by Stalker oK)
Библиотека кодирования : x264 core 148 r2665kMod a01e339
Настройки программы : cabac=1 / ref=14 / deblock=1:-3:-3 / analyse=0x3:0x133 / me=umh / subme=11 / psy=1 / fade_compensate=0.00 / psy_rd=1.00:0.10 / mixed_ref=1 / me_range=48 / chroma_me=1 / trellis=2 / 8x8dct=1 / cqm=0 / deadzone=21,11 / fast_pskip=0 / chroma_qp_offset=-3 / threads=12 / lookahead_threads=3 / sliced_threads=0 / nr=0 / decimate=0 / interlaced=0 / bluray_compat=0 / constrained_intra=0 / fgo=0 / bframes=15 / b_pyramid=2 / b_adapt=2 / b_bias=0 / direct=3 / weightb=1 / open_gop=0 / weightp=2 / keyint=240 / keyint_min=23 / scenecut=40 / intra_refresh=0 / rc_lookahead=60 / rc=2pass / mbtree=0 / bitrate=1407 / ratetol=1.0 / qcomp=0.70 / qpmin=0 / qpmax=69 / qpstep=4 / cplxblur=20.0 / qblur=0.5 / vbv_maxrate=50000 / vbv_bufsize=62500 / nal_hrd=none / filler=0 / ip_ratio=1.40 / pb_ratio=1.30 / aq=3:0.90
Default : Да
Forced : Нет

Аудио
Идентификатор : 2
Формат : AC-3
Формат/Информация : Audio Coding 3
Расширение режима : CM (complete main)
Параметр Endianness формата : Big
Идентификатор кодека : A_AC3
Продолжительность : 1 ч. 52 м.
Вид битрейта : Постоянный
Битрейт : 384 Кбит/сек
Каналы : 6 каналов
Расположение каналов : Front: L C R, Side: L R, LFE
Частота : 48,0 КГц
Частота кадров : 31,250 кадров/сек (1536 spf)
Метод сжатия : С потерями
Размер потока : 309 Мбайт (21%)
Язык : Russian
Default : Да
Forced : Нет

Текст #1
Идентификатор : 3
Формат : UTF-8
Идентификатор кодека : S_TEXT/UTF8
Идентификатор кодека/Информация : UTF-8 Plain Text
Продолжительность : 7 м. 19 с.
Битрейт : 3 бит/сек
Count of elements : 3
Размер потока : 171 байт (0%)
Заголовок : Forced
Язык : Russian
Default : Да
Forced : Нет

Текст #2
Идентификатор : 4
Формат : UTF-8
Идентификатор кодека : S_TEXT/UTF8
Идентификатор кодека/Информация : UTF-8 Plain Text
Продолжительность : 1 ч. 44 м.
Битрейт : 70 бит/сек
Count of elements : 1245
Размер потока : 53,8 Кбайт (0%)
Язык : Russian
Default : Нет
Forced : Нет

Текст #3
Идентификатор : 5
Формат : UTF-8
Идентификатор кодека : S_TEXT/UTF8
Идентификатор кодека/Информация : UTF-8 Plain Text
Продолжительность : 1 ч. 44 м.
Битрейт : 70 бит/сек
Count of elements : 1245
Размер потока : 54,1 Кбайт (0%)
Язык : Ukrainian
Default : Нет
Forced : Нет

Текст #4
Идентификатор : 6
Формат : UTF-8
Идентификатор кодека : S_TEXT/UTF8
Идентификатор кодека/Информация : UTF-8 Plain Text
Продолжительность : 1 ч. 44 м.
Битрейт : 45 бит/сек
Count of elements : 1233
Размер потока : 34,6 Кбайт (0%)
Язык : English
Default : Нет
Forced : Нет

Текст #5
Идентификатор : 7
Формат : UTF-8
Идентификатор кодека : S_TEXT/UTF8
Идентификатор кодека/Информация : UTF-8 Plain Text
Продолжительность : 1 ч. 45 м.
Битрейт : 48 бит/сек
Count of elements : 1331
Размер потока : 37,5 Кбайт (0%)
Заголовок : SDH
Язык : English
Default : Нет
Forced : Нет

Меню
00:00:00.000 : en:Chapter 1
00:03:48.561 : en:Chapter 2
00:09:05.836 : en:Chapter 3
00:16:01.335 : en:Chapter 4
00:20:46.036 : en:Chapter 5
00:28:43.430 : en:Chapter 6
00:37:41.967 : en:Chapter 7
00:45:50.956 : en:Chapter 8
00:54:19.713 : en:Chapter 9
00:59:47.708 : en:Chapter 10
01:06:01.748 : en:Chapter 11
01:13:06.131 : en:Chapter 12
01:18:13.229 : en:Chapter 13
01:25:02.262 : en:Chapter 14
01:32:21.158 : en:Chapter 15
01:43:07.430 : en:Chapter 16


Трекер:  [ 26-Апр-2016 13:00 ]

  

Скачать .torrent

Размер .torrent файла 14 KB


Размер: 1.41 GB
Хэш (hash) релиза: 2b144478c8d1201fd0a346e5718321b979298543
Подписка на обновления:

Торренты, похожие на 5-я волна The 5th Wave скачать торрент

Форум Название Автор Размер S L Добавлен
Зарубежные фильмы до 2016 ·· 5-я волна / The 5th Wave (Дж. Блэйксон / J. Blakeson) [2016, США, Фантастика, боевик, триллер, приключения, DVD9] R5 Dub + Sub Rus + Original Eng Galfimbul 79979110407.45 GB 0 0 1526715030

10:30

19-Май-18

Зарубежные фильмы 2016-2018 (Новинки зарубежного кино) ·· 5-я волна / The 5th Wave (Дж. Блэйксон / J. Blakeson) [2016, США, фантастика, боевик, триллер, Blu-ray CEE] Лицензия Galfimbul 4200562711839.12 GB 0 0 1467224112

21:15

29-Июн-16

Зарубежные фильмы до 2016 ·· 5-я волна / The 5th Wave (Дж. Блэйксон / J Blakeson) [2016, США, фантастика, боевик, триллер, приключения, BDRip 1080p] Dub (EUR) + Ukr (EUR) + Original Eng + subs (Rus, Eng) Galfimbul 1447468783213.48 GB 0 0 1464002524

14:22

23-Май-16

Зарубежные фильмы 2016-2018 (Новинки зарубежного кино) ·· 5-я волна / The 5th Wave (Дж. Блэйксон / J. Blakeson) [2016, США, фантастика, боевик, триллер, BDRip-AVC] Dub + Sub (rus, ukr, eng) Galfimbul 15654517161.46 GB 0 0 1463749087

15:58

20-Май-16

Зарубежные фильмы 2016-2018 (Новинки зарубежного кино) ·· 5-я волна / The 5th Wave (Дж. Блэйксон / J. Blakeson) [2016, США, Фантастика, боевик, триллер, приключения, HDRip] Dub (iTunes) Galfimbul 780955648745 MB 0 0 1463736455

12:27

20-Май-16

Зарубежные фильмы до 2016 ·· 5-я волна / The 5th Wave (Дж. Блэйксон / J. Blakeson) [2016, США, фантастика, боевик, триллер, приключения, BDRip 720p] Dub + Sub Rus, Ukr, Eng + Original Eng Galfimbul 56070212405.22 GB 0 0 1463716233

06:50

20-Май-16

Зарубежные фильмы 2016-2018 (Новинки зарубежного кино) ·· 5-я волна / The 5th Wave (Дж. Блэйксон / J. Blakeson) [2016, США, фантастика, боевик, триллер, приключения, HDRip-AVC] Dub (iTunes) + sub (rus, eng, ukr) Galfimbul 781165815745 MB 0 0 1462836260

02:24

10-Май-16

Зарубежные фильмы 2016-2018 (Новинки зарубежного кино) ·· 5-я волна / The 5th Wave (Дж. Блэйксон / J. Blakeson) [2016, США, Фантастика, боевик, триллер, приключения, WEB-DLRip] Dub (iTunes) Galfimbul 782501888746 MB 0 0 1461670064

14:27

26-Апр-16

Зарубежные фильмы 2016-2018 (Новинки зарубежного кино) ·· 5-я волна / The 5th Wave (Дж. Блэйксон / J. Blakeson) [2016, США, Фантастика, боевик, триллер, приключения, HDRip] Dub (iTunes) + Original Eng + Sub Rus Galfimbul 22088980692.06 GB 0 0 1461669944

14:25

26-Апр-16

Зарубежные фильмы 2016-2018 (Новинки зарубежного кино) ·· 5-я волна / The 5th Wave (Дж. Блэйксон / J. Blakeson) [2016, США, Фантастика, боевик, триллер, приключения, HDRip] Dub (iTunes) + Original Eng + Sub Rus Galfimbul 22090107092.06 GB 0 0 1460495359

00:09

13-Апр-16

Зарубежные фильмы до 2016 ·· 5-я волна / The 5th Wave (Дж. Блэйксон / J. Blakeson) [2016, США, фантастика, боевик, триллер, приключения, BDRip 720p] Dub (iTunes) + Sub Rus, Ukr, Eng + Original Eng Galfimbul 53912435685.02 GB 0 0 1460464023

15:27

12-Апр-16

Зарубежные фильмы 2016-2018 (Новинки зарубежного кино) ·· 5-я волна / The 5th Wave (Дж. Блэйксон / J. Blakeson) [2016, США, фантастика, боевик, триллер, приключения, BDRip-AVC] Dub + Original + Sub (rus, eng) Galfimbul 23351246292.17 GB 0 0 1460462296

14:58

12-Апр-16

Зарубежные фильмы 2016-2018 (Новинки зарубежного кино) ·· 5-я волна / The 5th Wave (Дж. Блэйксон / J. Blakeson) [2016, США, Фантастика, боевик, триллер, приключения, BDRip] Dub (iTunes) Galfimbul 15670743041.46 GB 0 0 1460315400

22:10

10-Апр-16

Зарубежные фильмы 2016-2018 (Новинки зарубежного кино) ·· 5-я волна / The 5th Wave (Дж. Блэйксон / J. Blakeson) [2016, США, фантастика, боевик, триллер, приключения, BDRip 1080p] iTunes Galfimbul 1339768949912.48 GB 0 0 1460285037

13:43

10-Апр-16

Зарубежные фильмы 2016-2018 (Новинки зарубежного кино) ·· 5-я волна / The 5th Wave (Дж. Блэйксон / J. Blakeson) [2016, США, фантастика, боевик, триллер, приключения, WEB-DLRip-AVC] Dub Galfimbul 15731580061.47 GB 0 0 1460236000

00:06

10-Апр-16

Зарубежные фильмы 2016-2018 (Новинки зарубежного кино) ·· 5-я волна / The 5th Wave (Дж. Блэйксон / J. Blakeson) [2016, фантастика, боевик, триллер, приключения, BDRip 720p] iTunes Galfimbul 50180516034.67 GB 0 0 1460200442

14:14

9-Апр-16

Зарубежные фильмы 2016-2018 (Новинки зарубежного кино) ·· 5-я волна / The 5th Wave (Дж. Блэйксон / J. Blakeson) [2016, США, Фантастика, боевик, триллер, приключения, WEB-DL 1080p] iTunes Galfimbul 41683469213.88 GB 0 0 1459933836

12:10

6-Апр-16

Зарубежные фильмы 2016-2018 (Новинки зарубежного кино) ·· 5-я волна / The 5th Wave (Дж. Блэйксон / J. Blakeson) [2016, США, Фантастика, боевик, триллер, приключения, WEB-DLRip] Dub (iTunes) + Original Eng + Sub Rus Galfimbul 22056560852.05 GB 0 0 1459843319

11:01

5-Апр-16

Зарубежные фильмы 2016-2018 (Новинки зарубежного кино) ·· 5-я волна / The 5th Wave (Дж. Блэйксон / J. Blakeson) [2016, США, Фантастика, боевик, триллер, приключения, WEB-DLRip] iTunes Galfimbul 782606923746 MB 0 0 1459803136

23:52

4-Апр-16

Еще никто не оставлял запись к записи скачать торрент 5-я волна The 5th Wave . Будь первым!

!Обратная связь