Скачать через торрент Черные праздники Holidays Фильм бесплатно в хорошем качестве torrent

Скачивайте на UnionPeer.org фильмы через торрент без регистрации. Новинки кино в хорошем качестве через торрент. На UnionPeer.org можно скачать через торрент фильмы 2014 и 2015 годов. Самые новые фильмы.

Скачать торрент Черные праздники Holidays бесплатно через .torrent фильм мультфильм сериал

Статистика раздачи
Размер:  1.48 GB   |    Зарегистрирован:  2 года 5 месяцев   |    .torrent скачан:  31 раз   |   
Раздают:  1  
   
загрузка...
 
Автор Сообщение

Galfimbul

avatar Galfimbul


Черные праздники / Holidays

Страна: США
Жанр: ужасы, комедия
Год выпуска: 2016
Продолжительность: 01:44:32

Перевод: Любительский (двухголосый закадровый) Parovoz Production
Cубтитры: нет
Оригинальная аудиодорожка: нет

Режиссер: Энтони Скотт Бёрнс, Кевин Колш, Николас МакКарти / Anthony Scott Burns, Kevin Kolsch, Nicholas McCarthy

В ролях: Кевин Смит, Лоренца Иззо, Сет Грин, Клэр Грант, Майкл Гросс, Эндрю Бауэн, Рут Брэдли, Майкл Сунь Ли, Ава Акрес, Джоселин Донахью

Описание: Антология всеми любимых праздников, пропущенных через призму человеческих страхов и предубеждений.

Релиз без рекламы!!!!!!
Видео взято из этой раздачи <a href="viewtopic.php?t=5210865" class="postLink">...5210865</a>

Сэмпл: http://multi-up.com/1098234

Качество видео: WEB-DLRip
Формат видео: AVI

Видео: Xvid 720x400 23.976fps 1 830 Kbps
Аудио: Dolby AC3 48000Hz stereo 192kbps
Format : AVI
Format/Info : Audio Video Interleave
File size : 1.48 GiB
Duration : 1h 44mn
Overall bit rate : 2 031 Kbps
Writing application : VirtualDubMod 1.5.10.3 | www.virtualdub-fr.org || (build 2550/release)
Writing library : VirtualDubMod build 2550/release

Video
ID : 0
Format : MPEG-4 Visual
Format profile : Advanced Simple@L5
Format settings, BVOP : Yes
Format settings, QPel : No
Format settings, GMC : No warppoints
Format settings, Matrix : Custom
Codec ID : XVID
Codec ID/Hint : XviD
Duration : 1h 44mn
Bit rate : 1 830 Kbps
Width : 720 pixels
Height : 400 pixels
Display aspect ratio : 16:9
Frame rate : 23.976 fps
Color space : YUV
Chroma subsampling : 4:2:0
Bit depth : 8 bits
Scan type : Progressive
Compression mode : Lossy
Bits/(Pixel*Frame) : 0.265
Stream size : 1.34 GiB (90%)
Writing library : XviD 73

Audio
ID : 1
Format : AC-3
Format/Info : Audio Coding 3
Mode extension : CM (complete main)
Format settings, Endianness : Big
Codec ID : 2000
Duration : 1h 44mn
Bit rate mode : Constant
Bit rate : 192 Kbps
Channel count : 2 channels
Channel positions : Front: L R
Sampling rate : 48.0 KHz
Bit depth : 16 bits
Compression mode : Lossy
Stream size : 144 MiB (9%)
Alignment : Split accross interleaves
Interleave, duration : 42 ms (1.00 video frame)
Interleave, preload duration : 500 ms


Трекер:  [ 26-Апр-2016 13:00 ]

  

Скачать .torrent

Размер .torrent файла 15 KB


Размер: 1.48 GB
Хэш (hash) релиза: 840c9839ca0d7d5c91fd14464c20b01fe2af3bb7
Подписка на обновления:

Торренты, похожие на Черные праздники Holidays скачать торрент

Форум Название Автор Размер S L Добавлен
Зарубежные фильмы до 2016 ·· Черные праздники / Holidays (Энтони Скотт Бёрнс, Кевин Колш, Николас МакКарти / Anthony Scott Burns, Kevin Kolsch, Nicholas McCarthy) [2016, США, ужасы, BDRemux 1080p] Dub (Netflix) + Sub Rus,Eng + Original Eng Galfimbul 1977529186418.42 GB 0 0 1502802574

16:09

15-Авг-17

Зарубежные фильмы 2016-2018 (Новинки зарубежного кино) ·· Черные праздники / Holidays (Энтони Скотт Бёрнс / Anthony Scott Burns, Кевин Колш / Kevin Kolsch, Николас МакКарти / Nicholas McCarthy) [2016, США, ужасы, BDRip] Dub (Netflix) Galfimbul 15490744321.44 GB 0 0 1502780479

10:01

15-Авг-17

Зарубежные фильмы до 2016 ·· Черные праздники / Holidays (Энтони Скотт Бёрнс / Anthony Scott Burns, Кевин Колш / Kevin Kolsch, Николас МакКарти / Nicholas McCarthy) [2016, США, ужасы, HDTV 1080i] Dub (100PRO) Galfimbul 42833002313.99 GB 0 0 1475953552

22:05

8-Окт-16

Зарубежные фильмы 2016-2018 (Новинки зарубежного кино) ·· Черные праздники / Holidays [2016, ужасы, комедия, WEB-DLRip] Line Galfimbul 15923855361.48 GB 0 0 1465719592

11:19

12-Июн-16

Зарубежные фильмы 2016-2018 (Новинки зарубежного кино) ·· Черные праздники / Holidays [2016, ужасы, комедия, WEB-DL 1080p] Line Galfimbul 39472187723.68 GB 0 0 1465719569

11:19

12-Июн-16

Зарубежные фильмы 2016-2018 (Новинки зарубежного кино) ·· Черные праздники / Holidays [2016, ужасы, комедия, WEB-DLRip] Galfimbul 15923855361.48 GB 0 0 1462362053

14:40

4-Май-16

Зарубежные фильмы 2016-2018 (Новинки зарубежного кино) ·· Черные праздники / Holidays [2016, ужасы, комедия, WEB-DL 1080p] Galfimbul 39472187723.68 GB 0 0 1462362047

14:40

4-Май-16

Зарубежные фильмы 2016-2018 (Новинки зарубежного кино) ·· Черные праздники / Holidays [2016, ужасы, комедия, WEB-DL 1080p] Galfimbul 39472180033.68 GB 0 0 1461082607

19:16

19-Апр-16

Зарубежные фильмы 2016-2018 (Новинки зарубежного кино) ·· Черные праздники / Holidays [2016, ужасы, комедия, WEB-DLRip] Galfimbul 15923855361.48 GB 0 0 1461075280

17:14

19-Апр-16

Зарубежные фильмы 2016-2018 (Новинки зарубежного кино) ·· Черные праздники / Holidays [2016, ужасы, комедия, WEB-DLRip] Galfimbul 15923855361.48 GB 0 0 1460998731

19:58

18-Апр-16

Зарубежные фильмы 2016-2018 (Новинки зарубежного кино) ·· Черные праздники / Holidays [2016, ужасы, комедия, WEB-DL 1080p] Galfimbul 39472187723.68 GB 0 0 1460998707

19:58

18-Апр-16

Еще никто не оставлял запись к записи скачать торрент Черные праздники Holidays . Будь первым!

!Обратная связь