Скачать через торрент Блю Маунтин Стэйт: Рождение Тэдленда Штат Блу Маунтин: Восстание Тадлэнда Фильм бесплатно в хорошем качестве torrent

Скачивайте на UnionPeer.org фильмы через торрент без регистрации. Новинки кино в хорошем качестве через торрент. На UnionPeer.org можно скачать через торрент фильмы 2014 и 2015 годов. Самые новые фильмы.

Скачать торрент Блю Маунтин Стэйт: Рождение Тэдленда Штат Блу Маунтин: Восстание Тадлэнда бесплатно через .torrent фильм мультфильм сериал

Статистика раздачи
Размер:  1.46 GB   |    Зарегистрирован:  2 года 5 месяцев   |    .torrent скачан:  42 раза   |   
Раздают:  1  
   
загрузка...
 
Автор Сообщение

Galfimbul

avatar Galfimbul


Блю Маунтин Стэйт: Рождение Тэдленда / Штат Блу Маунтин: Восстание Тадлэнда / Blue Mountain State: The Rise of Thadland
Страна: США
Жанр: Комедия, Спорт
Год выпуска: 2016
Продолжительность: 01:30:10
Перевод: Одноголосый закадровый Arkadiy
Cубтитры: русские (форсированные, внешние)
Режиссер: Лев Л. Спиро / Lev L. Spiro
В ролях: Алан Ричсон, Дэрин Брукс, Джеймс Кейд, Романски, Фрэнки Шоу, Роб Рамсей, Эд Маринаро и др.
Описание: За несколько недель до начала учебного года BMS возглавляет новый декан. Новый человек – новые правила. И первым в его расстрельном списке значится Козлятник. Сохранить легендарный дом разврата и беззакония под силу лишь одному человеку на земле – Тэду Каслу. Но есть одно условие: спасение Козлятника взамен на грандиозную и безумную вечеринку, которую когда-либо видели стены BMS. Алексу и остальным футболистам придется серьезно потрудиться, чтобы удовлетворить запросы эксцентричной звезды НФЛ…

Американская киноассоциация была настолько шокирована увиденным, что хотела присвоить фильму рейтинг NC-17 (многие кинотеатры предпочитают не связываться с такими фильмами, также запрещена реклама в средствах массовой информации), но создатели планировали показать картину на большом экране, поэтому вырезали несколько сцен и смогли получить рейтинг R. К сожалению, у дистрибьютора были иные планы и фильм до большого проката так и не добрался. Однако для цифровых платформ создатели вернули все вырезные моменты. Поэтому, официально у фильма рейтинг R, но фактически NC-17.

Сэмпл: http://sendfile.su/1225399
Качество видео: WEB-DLRip
Формат видео: AVI
Видео: XviD, 720x304 (2.35:1), 23.976 fps, ~2080 kbps avg, 0.39 bit/pixel
Аудио: AC3, 48 kHz, 2/0 (L,R) ch, ~224 kbps
Формат субтитров: softsub (SRT)
Доп. информация о субтитрах: Форсированные
General
Complete name : C:\Desktop\Blue.Mountain.State.The.Rise.of.Thadland.2016.WEB-DLRip.avi
Format : AVI
Format/Info : Audio Video Interleave
File size : 1.46 GiB
Duration : 1h 30mn
Overall bit rate : 2 313 Kbps
Writing application : VirtualDubMod 1.5.10.2 (build 2540/release)
Writing library : VirtualDubMod build 2540/release

Video
ID : 0
Format : MPEG-4 Visual
Format profile : Advanced Simple@L5
Format settings, BVOP : 1
Format settings, QPel : No
Format settings, GMC : No warppoints
Format settings, Matrix : Default (H.263)
Muxing mode : Packed bitstream
Codec ID : XVID
Codec ID/Hint : XviD
Duration : 1h 30mn
Bit rate : 2 080 Kbps
Width : 720 pixels
Height : 304 pixels
Display aspect ratio : 2.35:1
Frame rate : 23.976 fps
Color space : YUV
Chroma subsampling : 4:2:0
Bit depth : 8 bits
Scan type : Progressive
Compression mode : Lossy
Bits/(Pixel*Frame) : 0.396
Stream size : 1.31 GiB (90%)
Writing library : XviD 64

Audio
ID : 1
Format : AC-3
Format/Info : Audio Coding 3
Mode extension : CM (complete main)
Codec ID : 2000
Duration : 1h 30mn
Bit rate mode : Constant
Bit rate : 224 Kbps
Channel(s) : 2 channels
Channel positions : Front: L R
Sampling rate : 48.0 KHz
Bit depth : 16 bits
Compression mode : Lossy
Stream size : 144 MiB (10%)
Alignment : Split accross interleaves
Interleave, duration : 42 ms (1.00 video frame)
Interleave, preload duration : 500 ms


Трекер:  [ 26-Апр-2016 13:00 ]

  

Скачать .torrent

Размер .torrent файла 15 KB


Размер: 1.46 GB
Хэш (hash) релиза: 439f78186414b1b6b51c021bda6d2970526d68b4
Подписка на обновления:

Еще никто не оставлял запись к записи скачать торрент Блю Маунтин Стэйт: Рождение Тэдленда Штат Блу Маунтин: Восстание Тадлэнда . Будь первым!

!Обратная связь