Скачать через торрент Доверие The Trust Фильм бесплатно в хорошем качестве torrent

Скачивайте на UnionPeer.org фильмы через торрент без регистрации. Новинки кино в хорошем качестве через торрент. На UnionPeer.org можно скачать через торрент фильмы 2014 и 2015 годов. Самые новые фильмы.

Скачать торрент Доверие The Trust бесплатно через .torrent фильм мультфильм сериал

Статистика раздачи
Размер:  749 MB   |    Зарегистрирован:  2 года 5 месяцев   |    .torrent скачан:  55 раз   |   
Раздают:  1  
   
загрузка...
 
Автор Сообщение

Galfimbul

avatar Galfimbul


Доверие / The Trust «Плохие копы делают лучших преступников»
Страна: Великобритания / Ingenious Media
Жанр: триллер, криминал
Год выпуска: 2016
Продолжительность: 01:45:52
Перевод: Любительский (двухголосый закадровый) Parovoz Production
Cубтитры: нет
Оригинальная аудиодорожка: нет

Режиссер: Алекс Брюэр / Alex Brewer, Бенжамин Брюэр / Benjamin Brewer

В ролях: Николас Кейдж, Элайджа Вуд, Джерри Льюис, Стивен Уильямс, Скай Феррейра, Кевин Уайзман, Лиза Гарднер, Кристи Беран, Джеффри Ховард, Томми Вегас

Описание: Парочка коррумпированных полицейских в отделе улик обнаруживает сейф с нарко-деньгами. Решив похитить тайник, они не подозревают, что вступают в игру за собственные жизни.
Группа желает всем приятного просмотра!Качество видео: HDRip / BDRip (1080p)
Формат видео: AVI
Видео: 656x352 (1.86:1), 23.976 fps, XviD build 65 ~1004 kbps avg, 0.18 bit/pixel
Аудио: 48 kHz, MPEG Layer 3, 2 ch, ~128.00 kbps avg
General
Complete name : C:\Users\Никита\Desktop\666.avi
Format : AVI
Format/Info : Audio Video Interleave
File size : 749 MiB
Duration : 1h 31mn
Overall bit rate : 1 142 Kbps
Writing application : VirtualDubMod 1.5.10.2 (build 2540/release)
Writing library : VirtualDubMod build 2540/release

Video
ID : 0
Format : MPEG-4 Visual
Format profile : Advanced Simple@L5
Format settings, BVOP : 2
Format settings, QPel : No
Format settings, GMC : No warppoints
Format settings, Matrix : Custom
Codec ID : XVID
Codec ID/Hint : XviD
Duration : 1h 31mn
Bit rate : 1 005 Kbps
Width : 656 pixels
Height : 352 pixels
Display aspect ratio : 1.85:1
Frame rate : 23.976 (24000/1001) fps
Color space : YUV
Chroma subsampling : 4:2:0
Bit depth : 8 bits
Scan type : Progressive
Compression mode : Lossy
Bits/(Pixel*Frame) : 0.181
Stream size : 659 MiB (88%)
Writing library : XviD 65

Audio
ID : 1
Format : MPEG Audio
Format version : Version 1
Format profile : Layer 3
Mode : Joint stereo
Mode extension : MS Stereo
Codec ID : 55
Codec ID/Hint : MP3
Duration : 1h 31mn
Bit rate mode : Constant
Bit rate : 128 Kbps
Channel(s) : 2 channels
Sampling rate : 48.0 KHz
Compression mode : Lossy
Stream size : 84.0 MiB (11%)
Alignment : Aligned on interleaves
Interleave, duration : 42 ms (1.00 video frame)
Interleave, preload duratio : 504 ms
Writing library : LAME3.99r
Encoding settings : -m j -V 4 -q 2 -lowpass 17 -b 128


Трекер:  [ 26-Апр-2016 13:00 ]

  

Скачать .torrent

Размер .torrent файла 15 KB


Размер: 749 MB
Хэш (hash) релиза: b3d39d8f3ecc3a9e3ff4d2d6ea3d5d81e86513f3
Подписка на обновления:

Торренты, похожие на Доверие The Trust скачать торрент

Форум Название Автор Размер S L Добавлен
Зарубежные фильмы 2016-2018 (Новинки зарубежного кино) ·· Доверие / The Trust (Алекс Брюэр / Alex Brewer, Бенжамин Брюэр / Benjamin Brewer) [2016, Великобритания, Триллер, криминал, BDRemux 1080p] Galfimbul 2507827108223.36 GB 0 0 1460290230

15:10

10-Апр-16

Зарубежные фильмы 2016-2018 (Новинки зарубежного кино) ·· Доверие / The Trust (Алекс Брюэр / Alex Brewer, Бенжамин Брюэр / Benjamin Brewer) [2016, Великобритания, Триллер, криминал, BDRip 1080p] Galfimbul 90797379648.46 GB 0 0 1460274798

10:53

10-Апр-16

Зарубежные фильмы 2016-2018 (Новинки зарубежного кино) ·· Доверие / The Trust (Alex Brewer, Бенжамин Брюэр) [2016, триллер, криминал, BDRip 720p] Galfimbul 61503560065.73 GB 0 0 1460274776

10:52

10-Апр-16

Зарубежные фильмы 2016-2018 (Новинки зарубежного кино) ·· Доверие / The Trust (Алекс Брюэр / Alex Brewer, Бенжамин Брюэр / Benjamin Brewer) [2016, Великобритания, Триллер, криминал, BDRip] DVO Galfimbul 15625134081.46 GB 0 0 1460234420

23:40

9-Апр-16

Зарубежные фильмы 2016-2018 (Новинки зарубежного кино) ·· Доверие / The Trust (Алекс Брюэр, Бенжамин Брюэр) [2016, Великобритания, триллер, криминал, HDRip] MVO [Parovoz Production] + Original Eng Galfimbul 15605760001.45 GB 0 0 1460227176

21:39

9-Апр-16

Зарубежные фильмы 2016-2018 (Новинки зарубежного кино) ·· Доверие / The Trust (Alex Brewer, Бенжамин Брюэр) [2016, триллер, криминал, HDRip] Galfimbul 15605760001.45 GB 0 0 1460206066

15:47

9-Апр-16

Документальные фильмы и телепередачи ·· Билли Джоэл. Дело доверия: Окно в Россию / Billy Joel. A Matter of Trust: The Bridge to Russia (Джим Браун / Jim Brown) [2014, Документальный, музыка, рок, HDTVRip] MVO (1 канал) Galfimbul 11729489921.09 GB 0 0 1471183605

17:06

14-Авг-16

Документальные фильмы и телепередачи ·· Билли Джоэл. Дело доверия. Мост в Россию / Окно в Россию / Billy Joel: A Matter of Trust. The Bridge to Russia. A Documentary Film (Джим Браун / Jim Brown) [2013, документальный, музыка, DVB] Galfimbul 18211881881.7 GB 0 0 1420637681

16:34

7-Янв-15

Еще никто не оставлял запись к записи скачать торрент Доверие The Trust . Будь первым!

!Обратная связь