Скачать через торрент Боевой механизм Боекомплект Фильм бесплатно в хорошем качестве torrent

Скачивайте на UnionPeer.org фильмы через торрент без регистрации. Новинки кино в хорошем качестве через торрент. На UnionPeer.org можно скачать через торрент фильмы 2014 и 2015 годов. Самые новые фильмы.

Скачать торрент Боевой механизм Боекомплект бесплатно через .torrent фильм мультфильм сериал

Статистика раздачи
Размер:  736 MB   |    Зарегистрирован:  2 года 5 месяцев   |    .torrent скачан:  65 раз   |   
Раздают:  1  
   
загрузка...
 
Автор Сообщение

Galfimbul

avatar Galfimbul


Боевой механизм / Боекомплект / Swap / Weaponized
Страна: США
Жанр: Фантастика, боевик, триллер
Год выпуска: 2016
Продолжительность: 01:30:58
Parovoz Production
Перевод: Любительский (двухголосый закадровый Parovoz Production
Cубтитры: нет
Оригинальная аудиодорожка: нет

Режиссер: Тимоти Вудворд мл. / Timothy Woodward Jr.

В ролях: Том Сайзмор, Джонни Месснер, Микки Рурк, Тейлор Коул, Джон Фу, Майкл Паре, Крис Дэймон, Каллен Дж. Чэмберс, Тимоти Вудворд мл., Джон Лофлин.

Описание: Ближайшее будущее, биотехнологии достигли достаточного уровня, чтобы интегрировать воедино человеческую плоть и боевую роботизированную броню. В секретных лабораториях созданы первые практически непобедимые солдаты-киборги. Полицейский детектив, расследуя убийство своего сына - жертвы теракта, решает перепрограммировать киборгов и направить их против виновной террористической группировки. Однако, вирус, которым он заражает командную систему биороботов превращает их в бесжалостных убийц всего живого вокруг...
Группа желает всем приятного просмотра!Качество видео: HDRip [BDRip 1080p]
Формат видео: AVI
Видео: 640x272 (2.35:1), 23.976 fps, XviD build 73 ~993 kbps avg, 0.24 bit/pixel
Аудио: 48 kHz, MPEG Layer 3, 2 ch, ~128.00 kbps avg

Сэмпл: http://multi-up.com/1095834
<a href="viewtopic.php?t=5179520" class="postLink">...5179520</a>
http://screenshotcomparison.com/comparison/167906
General
Complete name : D:\Торренты\Swap Weaponized_Drek_Rutracker.org.avi
Format : AVI
Format/Info : Audio Video Interleave
File size : 736 MiB
Duration : 1h 30mn
Overall bit rate : 1 131 Kbps
Writing application : VirtualDubMod 1.5.10.2 (build 2540/release)
Writing library : VirtualDubMod build 2540/release

Video
ID : 0
Format : MPEG-4 Visual
Format profile : Advanced Simple@L5
Format settings, BVOP : 2
Format settings, QPel : No
Format settings, GMC : No warppoints
Format settings, Matrix : Custom
Codec ID : XVID
Codec ID/Hint : XviD
Duration : 1h 30mn
Bit rate : 994 Kbps
Width : 640 pixels
Height : 272 pixels
Display aspect ratio : 2.35:1
Frame rate : 23.976 (23976/1000) fps
Color space : YUV
Chroma subsampling : 4:2:0
Bit depth : 8 bits
Scan type : Progressive
Compression mode : Lossy
Bits/(Pixel*Frame) : 0.238
Stream size : 647 MiB (88%)
Writing library : XviD 73

Audio
ID : 1
Format : MPEG Audio
Format version : Version 1
Format profile : Layer 3
Mode : Joint stereo
Mode extension : MS Stereo
Codec ID : 55
Codec ID/Hint : MP3
Duration : 1h 30mn
Bit rate mode : Constant
Bit rate : 128 Kbps
Channel(s) : 2 channels
Sampling rate : 48.0 KHz
Compression mode : Lossy
Stream size : 83.3 MiB (11%)
Alignment : Aligned on interleaves
Interleave, duration : 42 ms (1.00 video frame)
Interleave, preload duratio : 504 ms
Writing library : LAME3.99r
Encoding settings : -m j -V 4 -q 2 -lowpass 17 -b 128


Трекер:  [ 26-Апр-2016 13:00 ]

  

Скачать .torrent

Размер .torrent файла 15 KB


Размер: 736 MB
Хэш (hash) релиза: ee97c79a6cfac989d7768e389e0e754e6730616c
Подписка на обновления:

Торренты, похожие на Боевой механизм Боекомплект скачать торрент

Форум Название Автор Размер S L Добавлен
Зарубежные фильмы 2016-2018 (Новинки зарубежного кино) ·· Боевой механизм / Боекомплект / Swap / Weaponized (Тимоти Вудворд мл. / Timothy Woodward Jr.) [2016, США, Фантастика, боевик, триллер, HDRip] DVO (Parovoz Production) Galfimbul 783278080747 MB 0 0 1456673773

18:36

28-Фев-16

Еще никто не оставлял запись к записи скачать торрент Боевой механизм Боекомплект . Будь первым!

!Обратная связь