Скачать через торрент Пятьдесят оттенков черного Fifty Shades of Black Фильм бесплатно в хорошем качестве torrent

Скачивайте на UnionPeer.org фильмы через торрент без регистрации. Новинки кино в хорошем качестве через торрент. На UnionPeer.org можно скачать через торрент фильмы 2014 и 2015 годов. Самые новые фильмы.

Скачать торрент Пятьдесят оттенков черного Fifty Shades of Black бесплатно через .torrent фильм мультфильм сериал

Статистика раздачи
Размер:  744 MB   |    Зарегистрирован:  2 года 5 месяцев   |    .torrent скачан:  81 раз   |   
Раздают:  1  
   
загрузка...
 
Автор Сообщение

Galfimbul

avatar Galfimbul


Пятьдесят оттенков черного / Fifty Shades of Black

Страна: США
Жанр: комедия
Год выпуска: 2016
Продолжительность: 01:28:02

Перевод: Профессиональный (дублированный) iTunes
Cубтитры: нет
Оригинальная аудиодорожка: нет
Режиссер: Майкл Тиддес / Michael Tiddes
В ролях: Марлон Уайанс, Кали Хоук, Фред Уиллард, Майк Эппс, Эффион Крокетт, Джейн Сеймур, Флоренс Хендерсон, Эндрю Бэчелор, Дженни Зигрино, Кейт Лэнг Джонсон
Описание: Неискушенная студентка колледжа знакомится с состоятельным бизнесменом, чьи сексуальные предпочтения омрачают их отношения.
<a href="viewtopic.php?t=1460328" class="postLink"> </a>
Качество видео: <a href="viewtopic.php?t=5199658" class="postLink">WEB-DLRip</a>
Формат видео: AVI

Видео: 688x288 (2.39:1), 25 fps, XviD build 65 ~1043 kbps avg, 0.21 bit/pixel
Аудио: 48 kHz, MPEG Layer 3, 2 ch, ~128.00 kbps avg
Скачать сэмпл
Format                      : AVI
Format/Info                 : Audio Video Interleave
File size                   : 744 MiB
Duration                    : 1h 28mn
Overall bit rate            : 1 182 Kbps
Writing application         : VirtualDubMod 1.5.10.3 | www.virtualdub-fr.org || (build 2550/release)
Writing library             : VirtualDubMod build 2550/release

Video
ID                          : 0
Format                      : MPEG-4 Visual
Format profile              : Advanced Simple@L5
Format settings, BVOP       : 1
Format settings, QPel       : No
Format settings, GMC        : No warppoints
Format settings, Matrix     : Default (MPEG)
Codec ID                    : XVID
Codec ID/Hint               : XviD
Duration                    : 1h 28mn
Bit rate                    : 1 044 Kbps
Width                       : 688 pixels
Height                      : 288 pixels
Display aspect ratio        : 2.40:1
Frame rate                  : 25.000 fps
Color space                 : YUV
Chroma subsampling          : 4:2:0
Bit depth                   : 8 bits
Scan type                   : Progressive
Compression mode            : Lossy
Bits/(Pixel*Frame)          : 0.211
Stream size                 : 657 MiB (88%)
Writing library             : XviD 65

Audio
ID                          : 1
Format                      : MPEG Audio
Format version              : Version 1
Format profile              : Layer 3
Codec ID                    : 55
Codec ID/Hint               : MP3
Duration                    : 1h 28mn
Bit rate mode               : Constant
Bit rate                    : 128 Kbps
Channel(s)                  : 2 channels
Sampling rate               : 48.0 KHz
Compression mode            : Lossy
Stream size                 : 80.6 MiB (11%)
Alignment                   : Aligned on interleaves
Interleave, duration        : 40 ms (1.00 video frame)
Interleave, preload duratio : 504 ms
Writing library             : LAME3.99r
Encoding settings           : -m s -V 4 -q 2 -lowpass 17 -b 128


Трекер:  [ 26-Апр-2016 13:00 ]

  

Скачать .torrent

Размер .torrent файла 15 KB


Размер: 744 MB
Хэш (hash) релиза: 2c999c5977895dc72aca143e37da384114419580
Подписка на обновления:

Торренты, похожие на Пятьдесят оттенков черного Fifty Shades of Black скачать торрент

Форум Название Автор Размер S L Добавлен
Зарубежные фильмы 2016-2018 (Новинки зарубежного кино) ·· Пятьдесят оттенков черного / Fifty Shades of Black (Майкл Тиддес) [2016, комедия, BDRemux] iTunes Galfimbul 2402356687522.37 GB 0 0 1460733368

18:16

15-Апр-16

Зарубежные фильмы 2016-2018 (Новинки зарубежного кино) ·· Пятьдесят оттенков черного / Fifty Shades of Black (Майкл Тиддес / Michael Tiddes) [2016, США, Комедия, пародия, HDRip] Dub (iTunes) + Original Galfimbul 14751887361.37 GB 0 0 1460144790

22:46

8-Апр-16

Зарубежные фильмы до 2016 ·· Пятьдесят оттенков черного / Fifty Shades of Black (Майкл Тиддес / Michael Tiddes) [2016, США, комедия, WEB-DL 1080p] Dub (iTunes) Galfimbul 32168737953 GB 0 0 1459960296

19:31

6-Апр-16

Зарубежные фильмы 2016-2018 (Новинки зарубежного кино) ·· Пятьдесят оттенков черного / Fifty Shades of Black (Майкл Тиддес / Michael Tiddes) [2016, США, комедия, WEB-DLRip] Dub (iTunes) Galfimbul 14675824641.37 GB 0 0 1459427243

15:27

31-Мар-16

Зарубежные фильмы 2016-2018 (Новинки зарубежного кино) ·· Пятьдесят оттенков черного / Fifty Shades of Black (Майкл Тиддес / Michael Tiddes) [2016, США, комедия, WEB-DL 1080p] iTunes Galfimbul 32168737953 GB 0 0 1459412395

11:19

31-Мар-16

Зарубежные фильмы 2016-2018 (Новинки зарубежного кино) ·· Пятьдесят оттенков черного / Fifty Shades of Black (Майкл Тиддес / Michael Tiddes) [2016, США, комедия, WEB-DLRip] iTunes Galfimbul 14675824641.37 GB 0 0 1459410209

10:43

31-Мар-16

Зарубежные фильмы 2016-2018 (Новинки зарубежного кино) ·· Пятьдесят оттенков черного / Fifty Shades of Black (Майкл Тиддес / Michael Tiddes) [2016, США, комедия, WEBRip] Dub (Чистый звук) Galfimbul 14646165341.36 GB 0 0 1456260609

23:50

23-Фев-16

Зарубежные фильмы 2016-2018 (Новинки зарубежного кино) ·· Пятьдесят оттенков черного / Fifty Shades of Black (Майкл Тиддес) [2016, США, комедия, WEBRip] Galfimbul 14711541761.37 GB 0 0 1456135745

13:09

22-Фев-16

Еще никто не оставлял запись к записи скачать торрент Пятьдесят оттенков черного Fifty Shades of Black . Будь первым!

!Обратная связь