Скачать через торрент Кукла The Boy Фильм бесплатно в хорошем качестве torrent

Скачивайте на UnionPeer.org фильмы через торрент без регистрации. Новинки кино в хорошем качестве через торрент. На UnionPeer.org можно скачать через торрент фильмы 2014 и 2015 годов. Самые новые фильмы.

Скачать торрент Кукла The Boy бесплатно через .torrent фильм мультфильм сериал

Статистика раздачи
Размер:  1.46 GB   |    Зарегистрирован:  2 года 5 месяцев   |    .torrent скачан:  57 раз   |   
Раздают:  1  
   
загрузка...
 
Автор Сообщение

Galfimbul

avatar Galfimbul


Кукла / The Boy«Каждый ребенок должен быть любим»
Страна: США, Китай, Канада
Жанр: Ужасы, триллер
Год выпуска: 2016
Продолжительность: 01:33:08

Перевод: Профессиональный (дублированный) iTunes
Cубтитры: нет
Режиссер: Уильям Брент Белл / William Brent Bell

В ролях: Лорен Кохэн, Руперт Эванс, Джеймс Расселл, Джим Нортон (I), Диана Хардкэсл, Бен Робсон, Джетт Клине, Стефани Николь Лемелин

Описание: Благополучная английская семья нанимает для своего сына американскую няню. Приехав на новое место работы, няня обнаруживает, что ее подопечный — вовсе не настоящий мальчик, а кукла в человеческий рост, с которой обращаются, как с живым человеком. Но тревожные события, происходящие после того, как няня нарушает установленные строгие правила, заставляют её поверить в то, что кукла действительно может быть живой…

Сэмпл: http://multi-up.com/1096023

Качество видео: WEBRip
Формат видео: AVI

Видео: 720x304 (2.37:1), 25 fps, XviD build 73 ~2036 kbps avg, 0.37 bit/pixel
Аудио: 48 kHz, AC3 Dolby Digital, 2/0 (L,R) ch, ~192 kbps
Формат : AVI
Формат/Информация : Audio Video Interleave
Размер файла : 1,46 Гбайт
Продолжительность : 1 ч. 33 м.
Общий поток : 2238 Кбит/сек
Программа кодирования : VirtualDubMod 1.5.10.3 | www.virtualdub-fr.org || (build 2550/release)
Библиотека кодирования : VirtualDubMod build 2550/release

Видео
Идентификатор : 0
Формат : MPEG-4 Visual
Профиль формата : Advanced Simple@L5
Параметр BVOP формата : 1
Параметр QPel формата : Нет
Параметр GMC формата : Без точки перехода
Параметр матрицы формата : Выборочная
Идентификатор кодека : XVID
Идентификатор кодека/Подсказка : XviD
Продолжительность : 1 ч. 33 м.
Битрейт : 2036 Кбит/сек
Ширина : 720 пикселей
Высота : 304 пикселя
Соотношение сторон : 2,35:1
Частота кадров : 25,000 кадров/сек
Цветовое пространство : YUV
Субдискретизация насыщенности : 4:2:0
Битовая глубина : 8 бит
Тип развёртки : Прогрессивная
Метод сжатия : С потерями
Бит/(Пиксели*Кадры) : 0.372
Размер потока : 1,32 Гбайт (91%)
Библиотека кодирования : XviD 73

Аудио
Идентификатор : 1
Формат : AC-3
Формат/Информация : Audio Coding 3
Расширение режима : CM (complete main)
Параметр Endianness формата : Big
Идентификатор кодека : 2000
Продолжительность : 1 ч. 33 м.
Вид битрейта : Постоянный
Битрейт : 192 Кбит/сек
Каналы : 2 канала
Расположение каналов : Front: L R
Частота : 48,0 КГц
Частота кадров : 31,250 кадров/сек (1536 spf)
Метод сжатия : С потерями
Размер потока : 128 Мбайт (9%)
Выравнивание : Разделение по промежуткам
Продолжительность промежутка : 40 мс. (1,00 видеокадр)
Время предзагрузки промежутка : 500 мс.


Трекер:  [ 26-Апр-2016 19:30 ]

  

Скачать .torrent

Размер .torrent файла 15 KB


Размер: 1.46 GB
Хэш (hash) релиза: f68f75a412b9d1efee939b090a70113b348d98ff
Подписка на обновления:

Торренты, похожие на Кукла The Boy скачать торрент

Форум Название Автор Размер S L Добавлен
Зарубежные фильмы до 2016 ·· Кукла / The Boy (Уильям Брент Белл / William Brent Bell) [2016, США, Китай, Канада, Ужасы, триллер, детектив, DVD9] R5 Dub Galfimbul 61057351685.69 GB 0 0 1525366909

20:01

3-Май-18

Зарубежные фильмы 2016-2018 (Новинки зарубежного кино) ·· Кукла / The Boy (Уильям Брент Белл) [2016, Ужасы, триллер, детектив, HDRip] iTunes Galfimbul 779952128744 MB 0 0 1510140622

14:30

8-Ноя-17

Зарубежные фильмы до 2016 ·· Кукла / The Boy (Уильям Брент Белл / William Brent Bell) [2016, США, Китай, Канада, ужасы, триллер, BDRemux 1080p] Dub (iTunes) + Sub Eng + Original Eng Galfimbul 2744902334725.56 GB 0 0 1462567103

23:38

6-Май-16

Зарубежные фильмы до 2016 ·· Кукла / The Boy (Уильям Брент Белл / William Brent Bell) [2016, США, Китай, Канада, ужасы, триллер, BDRip 720p] Dub (iTunes) + Sub Eng + Original Eng Galfimbul 59091889875.5 GB 0 0 1462567083

23:38

6-Май-16

Зарубежные фильмы до 2016 ·· Кукла / The Boy (Уильям Брент Белл / William Brent Bell) [2016, США, Китай, Канада, ужасы, триллер, BDRip 1080p] Dub (iTunes) + Sub Eng + Original Eng Galfimbul 1344143079912.52 GB 0 0 1462567075

23:37

6-Май-16

Зарубежные фильмы 2016-2018 (Новинки зарубежного кино) ·· Кукла / The Boy (Уильям Брент Белл / William Brent Bell) [2016, США, Китай, Канада, Ужасы, триллер, BDRip] Dub (iTunes ) Galfimbul 15646433281.46 GB 0 0 1461903931

07:25

29-Апр-16

Зарубежные фильмы 2016-2018 (Новинки зарубежного кино) ·· Кукла / The Boy (Уильям Брент Белл / William Brent Bell) [2016, США, Китай, Канада, ужасы, триллер, HDRip] Dub Galfimbul 779952128744 MB 0 0 1461819390

07:56

28-Апр-16

Зарубежные фильмы до 2016 ·· Кукла / The Boy (Уильям Брент Белл / William Brent Bell) [2016, США, Китай, Канада, ужасы, триллер, BDRip 720p] Dub (iTunes) + Sub Eng + Original Eng Galfimbul 49728611564.63 GB 0 0 1461788816

23:26

27-Апр-16

Зарубежные фильмы 2016-2018 (Новинки зарубежного кино) ·· Кукла / The Boy (Уильям Брент Белл / William Brent Bell) [2016, США, Китай, Канада, Ужасы, триллер, HDRip] iTunes Galfimbul 14740869121.37 GB 0 0 1461741110

10:11

27-Апр-16

Зарубежные фильмы 2016-2018 (Новинки зарубежного кино) ·· Кукла / The Boy (Уильям Брент Белл / William Brent Bell) [2016, США, Китай, Канада, Ужасы, триллер, BDRip 1080p] iTunes Galfimbul 84928801047.91 GB 0 0 1461737745

09:15

27-Апр-16

Зарубежные фильмы 2016-2018 (Новинки зарубежного кино) ·· Кукла / The Boy (Уильям Брент Белл / William Brent Bell) [2016, США, Китай, Канада, Ужасы, триллер, BDRip 720p] iTunes Galfimbul 49728611564.63 GB 0 0 1461737735

09:15

27-Апр-16

Зарубежные фильмы 2016-2018 (Новинки зарубежного кино) ·· Кукла / The Boy (Уильям Брент Белл / William Brent Bell) [2016, США, Китай, Канада, ужасы, триллер, WEB-DLRip-AVC] Dub Galfimbul 15709851161.46 GB 0 0 1461684442

18:27

26-Апр-16

Зарубежные фильмы 2016-2018 (Новинки зарубежного кино) ·· Кукла / The Boy (Уильям Брент Белл / William Brent Bell) [2016, США, Китай, Канада, Ужасы, триллер, WEB-DL 1080p] iTunes Galfimbul 34080945323.17 GB 0 0 1461647404

08:10

26-Апр-16

Зарубежные фильмы 2016-2018 (Новинки зарубежного кино) ·· Кукла / The Boy (Уильям Брент Белл / William Brent Bell) [2016, США, Китай, Канада, Ужасы, триллер, WEB-DLRip] iTunes Galfimbul 14623232001.36 GB 0 0 1461647399

08:09

26-Апр-16

Зарубежные фильмы 2016-2018 (Новинки зарубежного кино) ·· Кукла / The Boy (Уильям Брент Белл / William Brent Bell) [2016, США, Китай, Канада, Ужасы, триллер, WEBRip] Dub (Line) Galfimbul 15632875521.46 GB 0 0 1460236052

00:07

10-Апр-16

Зарубежные фильмы 2016-2018 (Новинки зарубежного кино) ·· Кукла / The Boy (Уильям Брент Белл / William Brent Bell) [2016, США, Китай, Канада, Ужасы, триллер, WEBRip] Dub (Line) Galfimbul 785004544749 MB 0 0 1460235976

00:06

10-Апр-16

Зарубежные фильмы до 2016 ·· Кукла / The Boy (Крэйг Уилльям Макнейлл) [2015, ужасы, триллер, драма, WEBRip] Line Galfimbul 632672256603 MB 0 0 1459868101

17:55

5-Апр-16

Зарубежные фильмы до 2016 ·· Кукла / The Boy (Крэйг Уилльям Макнейлл) [2015, ужасы, триллер, драма, WEBRip 720p] Line Galfimbul 31385122072.92 GB 0 0 1459779290

17:14

4-Апр-16

Зарубежные фильмы до 2016 ·· Кукла / The Boy (Крэйг Уилльям Макнейлл) [2015, ужасы, триллер, драма, WEBRip] Line Galfimbul 14587412481.36 GB 0 0 1459758015

11:20

4-Апр-16

Еще никто не оставлял запись к записи скачать торрент Кукла The Boy . Будь первым!

!Обратная связь