Скачать через торрент Парикмахерская 3 Barbershop: The Next Cut Фильм бесплатно в хорошем качестве torrent

Скачивайте на UnionPeer.org фильмы через торрент без регистрации. Новинки кино в хорошем качестве через торрент. На UnionPeer.org можно скачать через торрент фильмы 2014 и 2015 годов. Самые новые фильмы.

Скачать торрент Парикмахерская 3 Barbershop: The Next Cut бесплатно через .torrent фильм мультфильм сериал

Статистика раздачи
Размер:  1.46 GB   |    Зарегистрирован:  7 лет 11 месяцев   |    .torrent скачан:  131 раз   |   
Раздают:  1  
 

Скачать Парикмахерская 3 / Barbershop: The Next Cut (Малкольм Д. Ли) [2016, комедия, TeleSynch] через torrent

 
 
Автор Сообщение

Galfimbul

avatar Galfimbul


Парикмахерская 3 / Barbershop: The Next Cut
«Everybody's back for a fresh cut»
Год выпуска: 2016
Страна: США
Жанр: комедия
Продолжительность: 01:49:09
Перевод: Любительский многоголосый - Имеется реклама от спонсора показа!
Субтитры: Нет
Режиссер: Малкольм Д. Ли
Сценарий: Кенья Беррис, Трэйси Оливер, Марк Браун
Продюсер: Айс Кьюб, Роберт Тейтел, Джордж Тиллман мл.
Оператор: Грег Гардинер
Композитор: Стэнли Кларк
Художник: Гентри Л. Акенс II, Даниэль Холлоуэл, Provi Fulp Ramphal
Монтаж: Пол Миллспауг
В ролях: Айс Кьюб / Ice Cube (Calvin), Седрик «Развлекатель» / Cedric the Entertainer (Eddie), Реджина Холл / Regina Hall (Angie), Шон Патрик Томас / Sean Patrick Thomas (Jimmy), Ив / Eve (Terri), Энтони Андерсон / Anthony Anderson (J.D.), Жасмин Льюис / Jazsmin Lewis (Jennifer), Дж.Б. Смув / J.B. Smoove (One-Stop)



Описание: С момента событий, описанных во второй части картины прошло более 10 лет. Кэлвин и его верная команда все еще в деле, однако, сама парикмахерская претерпела множество изменений. И первое, что бросается в глаза — присутствие представительниц прекрасного пола в некогда исключительно мужской компании…


Качество: TeleSynch
Формат: AVI
Видео кодек: XviD
Аудио кодеk: AC3
Видео: 720x368 (1.957:1), 23.976 fps, XviD, 1 710 Kbps
Аудио: Аудио #1: AC3, 192 Kbps, 48.0 KHz, 2 ch [Rus]

<a href="http://www.kinopoisk.ru/film/838672/" target="_blank" /><img align="absmiddle" src="kinopoisk.php?id=838672" style="padding: 5px;" /></a>

<div class="code_wrap"> <div class="code_head"> <p style="float: left;">Код:</p> <script type="text/javascript"> copyText_writeLink('this.parentNode.parentNode.nextSibling.nextSibling'); </script> </div><!--/code_head--> <div class="code">General
Complete name                            : Barbershop.The.Next.Cut.2016.MVO.TS.1.46Gb.KOSHERA.avi
Format                                   : AVI
Format/Info                              : Audio Video Interleave
File size                                : 1.46 GiB
Duration                                 : 1h 49mn
Overall bit rate                         : 1 911 Kbps
Writing application                      : VirtualDubMod 1.5.10.2 (build 2540/release)
Writing library                          : VirtualDubMod build 2540/release

Video
ID                                       : 0
Format                                   : MPEG-4 Visual
Format profile                           : Advanced Simple@L5
Format settings, BVOP                    : 2
Format settings, QPel                    : No
Format settings, GMC                     : No warppoints
Format settings, Matrix                  : Custom
Codec ID                                 : XVID
Codec ID/Hint                            : XviD
Duration                                 : 1h 49mn
Bit rate                                 : 1 710 Kbps
Width                                    : 720 pixels
Height                                   : 368 pixels
Display aspect ratio                     : 1.957
Frame rate                               : 23.976 fps
Color space                              : YUV
Chroma subsampling                       : 4:2:0
Bit depth                                : 8 bits
Scan type                                : Progressive
Compression mode                         : Lossy
Bits/(Pixel*Frame)                       : 0.269
Stream size                              : 1.30 GiB (89%)
Writing library                          : XviD 1.2.1 (UTC 2008-12-04)

Audio
ID                                       : 1
Format                                   : AC-3
Format/Info                              : Audio Coding 3
Mode extension                           : CM (complete main)
Format settings, Endianness              : Big
Codec ID                                 : 2000
Duration                                 : 1h 49mn
Bit rate mode                            : Constant
Bit rate                                 : 192 Kbps
Channel(s)                               : 2 channels
Channel positions                        : Front: L R
Sampling rate                            : 48.0 KHz
Bit depth                                : 16 bits
Compression mode                         : Lossy
Stream size                              : 150 MiB (10%)
Alignment                                : Split accross interleaves
Interleave, duration                     : 42 ms (1.00 video frame)
Interleave, preload duration             : 500 ms </div><!--/code--></div><!--/code_wrap-->

Сборы в США: $45 046 751
Премьера (мир): 15 апреля 2016
Рейтинг MPAA: Детям до 13 лет просмотр не желателен



Внимание! AdBlock блокирует показ скриншотов, все вопросы к разработчикам )))

Трекер:  [ 04-Май-2016 23:57 ]

  

Скачать .torrent

Размер .torrent файла 29 KB


Размер: 1.46 GB
Хэш (hash) релиза: 3c0ad9ebc4d13a6d307d61b3d134c115ff31e9d2
Подписка на обновления:

Еще никто не оставлял запись к записи скачать торрент Парикмахерская 3 Barbershop: The Next Cut . Будь первым!

!Обратная связь