Скачать через торрент Срок жизни Term Life Фильм бесплатно в хорошем качестве torrent

Скачивайте на UnionPeer.org фильмы через торрент без регистрации. Новинки кино в хорошем качестве через торрент. На UnionPeer.org можно скачать через торрент фильмы 2014 и 2015 годов. Самые новые фильмы.

Скачать торрент Срок жизни Term Life бесплатно через .torrent фильм мультфильм сериал

Статистика раздачи
Размер:  1.71 GB   |    Зарегистрирован:  7 лет 9 месяцев   |    .torrent скачан:  206 раз   |   
Раздают:  1  
 

Скачать Срок жизни / Term Life (Питер Биллингсли / Peter Billingsley) [2016, США, Драма, криминал, WEB-DLRip] VO + Original (Eng) + Subs (Rus, Eng) через torrent

 
 
Автор Сообщение

Galfimbul

avatar Galfimbul


Срок жизни / Term Life
Год выхода: 2016
Выпущено: США / Palm-Star Entertainment
Жанр: драма, криминал
Продолжительность: 01:32:43
Перевод: Одноголосый закадровый datynet
Cубтитры: Русские (Алексей Щуров), Английские (внешние .srt*)
Оригинальная аудиодорожка: Английская
Режиссер:
Питер Биллингсли / Peter Billingsley
В ролях:
Винс Вон, Хейли Стайнфелд, Джон Фавро, Билл Пэкстон, Терренс Ховард, Хорди Молья, Джонатан Бэнкс, Ши Уигхэм, Майк Эппс, Тараджи П. Хенсон, Аннабет Гиш, Мануэль Рульфо, Дэниэл Бернхард, Сесиль Де Франс, Анна Колвелл, Карлос Авилес, Роберт Пралго
О фильме:
Фильм рассказывает о персонаже по имени Ник Бэрроу, который планирует кражи, а потом продаёт эти проекты тому, кто больше заплатит. Но наступает чёрный день — один из замыслов Ника с треском проваливается, и теперь его смерти жаждут все, начиная с главарей мафии и заканчивая оборотнями в погонах.

Поняв, что от судьбы не убежишь, герой решает сделать напоследок что-то хорошее — он страхует жизнь на миллион долларов, чтобы после смерти обеспечить свою дочь. Не учитывает Ник только одного — страховка начнет действовать лишь через 21 день, в течение которых герою необходимо оставаться в живых. А это в его ситуации совсем не просто.
Релиз групп <a href="viewtopic.php?t=1677970" class="postLink"> </a> | | IMDB | КиноПоиск | Сэмпл |
Качество: WEB-DLRip [Term Life 2016 1080p WEB-DL H264 AC3-EVO]
Формат: AVI

Видео: 720x304 (2.37:1), 23.976 fps, XviD build 67 ~1854 kbps avg, 0.35 bit/pixel
Аудио #1: 48 kHz, AC3 Dolby Digital, 3/2 (L,C,R,l,r) + LFE ch, ~384.00 kbps avg (DUB)
Аудио #2: 48 kHz, AC3 Dolby Digital, 3/2 (L,C,R,l,r) + LFE ch, ~384.00 kbps avg (ENG) отдельно

General
Complete name                            : D:\Srok_zhizni_2016_WEB-DLRip_VO_by_Dalemake.avi
Format                                   : AVI
Format/Info                              : Audio Video Interleave
File size                                : 1.46 GiB
Duration                                 : 1h 32mn
Overall bit rate                         : 2 248 Kbps
Writing application                      : VirtualDubMod 1.5.10.3 | www.virtualdub-fr.org || (build 2550/release)
Writing library                          : VirtualDubMod build 2550/release

Video
ID                                       : 0
Format                                   : MPEG-4 Visual
Format profile                           : Advanced Simple@L5
Format settings, BVOP                    : 1
Format settings, QPel                    : No
Format settings, GMC                     : No warppoints
Format settings, Matrix                  : Custom
Codec ID                                 : XVID
Codec ID/Hint                            : XviD
Duration                                 : 1h 32mn
Bit rate                                 : 1 855 Kbps
Width                                    : 720 pixels
Height                                   : 304 pixels
Display aspect ratio                     : 2.35:1
Frame rate                               : 23.976 (23976/1000) fps
Color space                              : YUV
Chroma subsampling                       : 4:2:0
Bit depth                                : 8 bits
Scan type                                : Progressive
Compression mode                         : Lossy
Bits/(Pixel*Frame)                       : 0.353
Stream size                              : 1.20 GiB (83%)
Writing library                          : XviD 67

Audio
ID                                       : 1
Format                                   : AC-3
Format/Info                              : Audio Coding 3
Mode extension                           : CM (complete main)
Format settings, Endianness              : Big
Codec ID                                 : 2000
Duration                                 : 1h 32mn
Bit rate mode                            : Constant
Bit rate                                 : 384 Kbps
Channel(s)                               : 6 channels
Channel positions                        : Front: L C R, Side: L R, LFE
Sampling rate                            : 48.0 KHz
Frame rate                               : 31.250 fps (1536 spf)
Compression mode                         : Lossy
Stream size                              : 255 MiB (17%)
Alignment                                : Split accross interleaves
Interleave, duration                     : 42 ms (1.00 video frame)
Interleave, preload duration             : 500 ms



Внимание! AdBlock блокирует показ скриншотов, все вопросы к разработчикам )))
Трекер:  [ 12-Май-2016 00:00 ]

  

Скачать .torrent

Размер .torrent файла 18 KB


Размер: 1.71 GB
Хэш (hash) релиза: 9db11ca10c75e46dcfb9011687a4a3a5044c93e7
Подписка на обновления:

Торренты, похожие на Срок жизни Term Life скачать торрент

Форум Название Автор Размер S L Добавлен
Зарубежные фильмы 2016-2019 (Новинки зарубежного кино) ·· Срок жизни / Term Life (Питер Биллингсли / Peter Billingsley) [2016, США, драма, криминал, WEB-DLRip] MVO (Parovoz Production) + Original Eng Galfimbul 15610982401.45 GB 0 0 1466091367

18:36

16-Июн-16

Зарубежные фильмы 2016-2019 (Новинки зарубежного кино) ·· Срок жизни / Term Life (Питер Биллингсли) [2016, Драма, криминал, WEB-DL 720p] Galfimbul 32150354862.99 GB 0 0 1463695855

01:10

20-Май-16

Зарубежные фильмы 2016-2019 (Новинки зарубежного кино) ·· Срок жизни / Term Life (Питер Биллингсли) [2016, Драма, криминал, WEB-DLRip] Galfimbul 15610982401.45 GB 0 0 1463694357

00:45

20-Май-16

Зарубежные фильмы 2016-2019 (Новинки зарубежного кино) ·· Срок жизни / Term Life (Питер Биллингсли) [2016, Драма, криминал, WEB-DLRip] Galfimbul 14679142401.37 GB 0 0 1463681649

21:14

19-Май-16

Зарубежные фильмы 2016-2019 (Новинки зарубежного кино) ·· Срок жизни / Term Life (Питер Биллингсли) [2016, Драма, криминал, WEB-DL 720p] Galfimbul 33485816853.12 GB 0 0 1462984956

19:42

11-Май-16

Зарубежные фильмы 2016-2019 (Новинки зарубежного кино) ·· Срок жизни / Term Life (Питер Биллингсли) [2016, Драма, криминал, WEB-DLRip] Galfimbul 15576268801.45 GB 0 0 1462983229

19:13

11-Май-16

Зарубежные фильмы 2016-2019 (Новинки зарубежного кино) ·· Срок жизни / Term Life (Питер Биллингсли) [2016, Драма, криминал, WEB-DL 1080p] Sub Galfimbul 33730715353.14 GB 0 0 1462687952

09:12

8-Май-16

Еще никто не оставлял запись к записи скачать торрент Срок жизни Term Life . Будь первым!

!Обратная связь