The Confirmation torrent

UnionPeer.org . . UnionPeer.org 2014 2015 . .

The Confirmation .torrent

1.47 GB   |    :  7 11    |    .torrent :  73    |   
1  
   
 

Galfimbul

avatar Galfimbul


/ The Confirmation
: 2016
: / Lighthouse Pictures
:
: 01:41:19
: aka PashaUp
C: (kidkong), ( .srt*)
:
:
/ Bob Nelson
:
, , , , , , , , , , , , , , , , , , , , , , , ,
:
-, . , . , , .
<a href="viewtopic.php?t=1677970" class="postLink"> </a> | | IMDB | | |
: WEB-DLRip [The.Confirmation.2016.720p.WEB-DL.DD5.1.H264-FGT]
: AVI

: 720x400 (1.80:1), 23.976 fps, XviD build 67 ~1673 kbps avg, 0.24 bit/pixel
#1: 48 kHz, AC3 Dolby Digital, 2/0 (L,R) ch, ~192 kbps avg (RUS)
#2: 48 kHz, AC3 Dolby Digital, 2/0 (L,R) ch, ~192 kbps avg (ENG)

General
Complete name : D:\Podtverzhdenie_2016_WEB-DLRip_VO_by_Dalemake.avi
Format : AVI
Format/Info : Audio Video Interleave
File size : 1.47 GiB
Duration : 1h 41mn
Overall bit rate : 2 073 Kbps
Writing application : VirtualDubMod 1.5.10.3 | www.virtualdub-fr.org || (build 2550/release)
Writing library : VirtualDubMod build 2550/release

Video
ID : 0
Format : MPEG-4 Visual
Format profile : Advanced Simple@L5
Format settings, BVOP : 1
Format settings, QPel : No
Format settings, GMC : No warppoints
Format settings, Matrix : Custom
Codec ID : XVID
Codec ID/Hint : XviD
Duration : 1h 41mn
Bit rate : 1 674 Kbps
Width : 720 pixels
Height : 400 pixels
Display aspect ratio : 16:9
Frame rate : 23.976 (23976/1000) fps
Color space : YUV
Chroma subsampling : 4:2:0
Bit depth : 8 bits
Scan type : Progressive
Compression mode : Lossy
Bits/(Pixel*Frame) : 0.242
Stream size : 1.19 GiB (81%)
Writing library : XviD 67

Audio #1
ID : 1
Format : AC-3
Format/Info : Audio Coding 3
Mode extension : CM (complete main)
Format settings, Endianness : Big
Codec ID : 2000
Duration : 1h 41mn
Bit rate mode : Constant
Bit rate : 192 Kbps
Channel(s) : 2 channels
Channel positions : Front: L R
Sampling rate : 48.0 KHz
Frame rate : 31.250 fps (1536 spf)
Compression mode : Lossy
Stream size : 139 MiB (9%)
Alignment : Split accross interleaves
Interleave, duration : 42 ms (1.00 video frame)
Interleave, preload duration : 500 ms

Audio #2
ID : 2
Format : AC-3
Format/Info : Audio Coding 3
Mode extension : CM (complete main)
Format settings, Endianness : Big
Codec ID : 2000
Duration : 1h 41mn
Bit rate mode : Constant
Bit rate : 192 Kbps
Channel(s) : 2 channels
Channel positions : Front: L R
Sampling rate : 48.0 KHz
Frame rate : 31.250 fps (1536 spf)
Compression mode : Lossy
Stream size : 139 MiB (9%)
Alignment : Split accross interleaves
Interleave, duration : 42 ms (1.00 video frame)
Interleave, preload duration : 500 ms



! AdBlock , )))

 ·  , , FAQ-
:  [ 15--2016 17:30 ]

  

.torrent

.torrent 15 KB


: 1.47 GB
(hash) : 5f727dd1e11c3b536a3e5ebeae22411878d24847
:
··
...

, The Confirmation

S L
2016 ··  / The Confirmation ( / Bob Nelson) [2016, , , , BDRemux 1080p] VO (. aka PashaUp) + Sub Rus, Eng + Original Eng Galfimbul 1613774208815.03 GB 0 0 1465221419

16:56

6--16

2016-2019 ( ) ··  / The Confirmation ( ) [2016, , , WEB-DL 720p] Galfimbul 34906460573.25 GB 0 0 1463047836

13:10

12--16

The Confirmation . !

!