Скачать через торрент Манхэттенская ночь Manhattan Night Фильм бесплатно в хорошем качестве torrent

Скачивайте на UnionPeer.org фильмы через торрент без регистрации. Новинки кино в хорошем качестве через торрент. На UnionPeer.org можно скачать через торрент фильмы 2014 и 2015 годов. Самые новые фильмы.

Скачать торрент Манхэттенская ночь Manhattan Night бесплатно через .torrent фильм мультфильм сериал

Статистика раздачи
Размер:  1.45 GB   |    Зарегистрирован:  7 лет 6 месяцев   |    .torrent скачан:  123 раза   |   
Раздают:  1  
 

Скачать Манхэттенская ночь / Manhattan Night (Брайан ДеКьюбелис / Brian DeCubellis) [2016, США, Триллер, драма, криминал, WEB-DLRip] MVO (Parovoz Production) через torrent

 
 
Автор Сообщение

Galfimbul

avatar Galfimbul


[b]Манхэттенская ночь / Manhattan Night[/b]
Страна: США
Жанр: Триллер, драма, криминал
Год выпуска: 2016
Продолжительность: 01:53:56
Перевод: Любительский (многоголосый закадровый) - Parovoz Production
Cубтитры: нет
Режиссер: Брайан ДеКьюбелис / Brian DeCubellis
В ролях: Ивонн Страховски, Эдриан Броуди, Дженнифер Билз, Кэмпбелл Скотт, Стивен Беркофф, Линда Лавин, Кевин Брезнахан, Амели МакКендри, Томас Баир, Мэдисон Элизабет Лахарес
Описание: С просьбы соблазнительной незнакомки разобраться в нераскрытом убийстве ее мужа начинается неприятная история сексуальной одержимости и шантажа, которая может стоить журналисту Портеру Рену его работы, семьи и даже жизни.

Качество видео: WEB-DLRip
Формат видео: AVI
Видео: 720x304 (2.35:1), 23.976 fps, XviD 73, 1619 Kbps
Аудио: 48.0 kHz, AC3 Dolby Digital, 2 ch, 192 Kbps
General
Complete name : Downloads\Manhattan.Night.2016.L.WEB-DLRip.avi
Format : AVI
Format/Info : Audio Video Interleave
File size : 1.45 GiB
Duration : 1h 53mn
Overall bit rate : 1 821 Kbps
Writing application : VirtualDubMod 1.5.10.3 | www.virtualdub-fr.org || (build 2550/release)
Writing library : VirtualDubMod build 2550/release
Video #0
ID : 0
Format : MPEG-4 Visual
Format profile : Advanced Simple@L5
Format settings, BVOP : 1
Format settings, QPel : No
Format settings, GMC : No warppoints
Format settings, Matrix : Custom
Codec ID : XVID
Codec ID/Hint : XviD
Duration : 1h 53mn
Bit rate : 1 619 Kbps
Width : 720 pixels
Height : 304 pixels
Display aspect ratio : 2.35:1
Frame rate : 23.976 fps
Color space : YUV
Chroma subsampling : 4:2:0
Bit depth : 8 bits
Scan type : Progressive
Compression mode : Lossy
Bits/(Pixel*Frame) : 0.309
Stream size : 1.29 GiB (89%)
Writing library : XviD 73
Audio #1
ID : 1
Format : AC-3
Format/Info : Audio Coding 3
Mode extension : CM (complete main)
Format settings, Endianness : Big
Codec ID : 2000
Duration : 1h 53mn
Bit rate mode : Constant
Bit rate : 192 Kbps
Channel(s) : 2 channels
Channel positions : Front: L R
Sampling rate : 48.0 KHz
Bit depth : 16 bits
Compression mode : Lossy
Stream size : 156 MiB (11%)
Alignment : Split accross interleaves
Interleave, duration : 42 ms (1.00 video frame)
Interleave, preload duration : 500 ms

Релиз без рекламы.


Внимание! AdBlock блокирует показ скриншотов, все вопросы к разработчикам )))
Трекер:  [ 25-Май-2016 08:00 ]

  

Скачать .torrent

Размер .torrent файла 15 KB


Размер: 1.45 GB
Хэш (hash) релиза: 30573739252638abbf19fba5a582920d731dae3d
Подписка на обновления:

Торренты, похожие на Манхэттенская ночь Manhattan Night скачать торрент

Форум Название Автор Размер S L Добавлен
Зарубежные фильмы до 2016 ·· Журналист / Манхэттенская ночь / Manhattan Night / Manhattan Nocturne (Брайан ДеКьюбелис / Brian DeCubellis) [2016, США, триллер, драма, криминал, BDRip 1080p] Dub (iTunes) + Sub Eng + Original Eng Galfimbul 106277091939.9 GB 0 0 1519814098

13:34

28-Фев-18

Зарубежные фильмы 2016-2019 (Новинки зарубежного кино) ·· Журналист (Манхэттенская ночь) / Manhattan Night (Брайан ДеКьюбелис / Brian DeCubellis) [2016, США, триллер, драма, криминал, HDRip] Dub (iTunes) Galfimbul 15134535681.41 GB 0 0 1519786890

06:01

28-Фев-18

Зарубежные фильмы 2016-2019 (Новинки зарубежного кино) ·· Манхэттенская ночь / Manhattan Night (Брайан ДеКьюбелис / Brian DeCubellis) [2016, США, Триллер, драма, криминал, HDRip] MVO (Parovoz Production) Galfimbul 15673774081.46 GB 0 0 1470992617

12:03

12-Авг-16

Зарубежные фильмы 2016-2019 (Новинки зарубежного кино) ·· Манхэттенская ночь / Manhattan Night (Брайан ДеКьюбелис / Brian DeCubellis) [2016, США, Триллер, драма, криминал, HDRip] MVO (Parovoz Production) Galfimbul 782831616747 MB 0 0 1469692960

11:02

28-Июл-16

Зарубежные фильмы 2016-2019 (Новинки зарубежного кино) ·· Манхэттенская ночь / Manhattan Night (Брайан ДеКьюбелис / Brian DeCubellis) [2016, США, триллер, драма, криминал, HDRip] MVO (Parovoz Production) + Sub Eng + Original Eng Galfimbul 23468412052.19 GB 0 0 1469617029

13:57

27-Июл-16

Зарубежные фильмы 2016-2019 (Новинки зарубежного кино) ·· Манхэттенская ночь / Manhattan Night (Брайан ДеКьюбелис) [2016, триллер, драма, криминал, детектив, WEB-DL 720p] Galfimbul 37358666563.48 GB 0 0 1464005353

15:09

23-Май-16

Зарубежные фильмы 2016-2019 (Новинки зарубежного кино) ·· Манхэттенская ночь / Журналист / Manhattan Night (Брайан ДеКьюбелис / Brian DeCubellis) [2016, США, триллер, драма, криминал, WEB-DLRip] Dub (iTunes) Galfimbul 782782464747 MB 0 0 1520668874

11:01

10-Мар-18

Еще никто не оставлял запись к записи скачать торрент Манхэттенская ночь Manhattan Night . Будь первым!

!Обратная связь