Скачать через торрент Три девятки Triple 9 Фильм бесплатно в хорошем качестве torrent

Скачивайте на UnionPeer.org фильмы через торрент без регистрации. Новинки кино в хорошем качестве через торрент. На UnionPeer.org можно скачать через торрент фильмы 2014 и 2015 годов. Самые новые фильмы.

Скачать торрент Три девятки Triple 9 бесплатно через .torrent фильм мультфильм сериал

Статистика раздачи
Размер:  20.07 GB   |    Зарегистрирован:  7 лет 8 месяцев   |    .torrent скачан:  108 раз   |   
Раздают:  1  
 

Скачать Три девятки / Triple 9 (Джон Хиллкоут / John Hillcoat) [2016, США, криминал, драма, триллер, BDRip 1080p] Dub (iTunes) + Sub Rus, Eng + Original Eng через torrent

 
 
Автор Сообщение

Galfimbul

avatar Galfimbul



Три девятки / Triple 9
«Законы улицы не делятся на черные и белые»

Страна: США
Жанр: криминал, драма, триллер
Год выпуска: 2016
Продолжительность: 01:55:45
Перевод: Профессиональный (дублированный) iTunes
Cубтитры: русские, английские
Оригинальная аудиодорожка: английская
Режиссер: Джон Хиллкоут / John Hillcoat
В ролях: Аарон Пол, Кейт Уинслет, Вуди Харрельсон, Кейси Аффлек, Энтони Маки, Чиветел Эджиофор, Галь Гадот, Норман Ридус, Тереза Палмер, Майкл Кеннет Уильямс, Клифтон Коллинз мл., Мишель Энг, Терренс Розмор, Терри Эбни, Александр Бабара, Энтони Белевцов, Луис Да Силва мл., Йен Касселберри, Э. Роджер Митчелл, Блейк МакЛеннан
Описание: Банда преступников и коррумпированных копов планирует убить полицейского, чтобы провернуть ограбление на другом конце города.


Тип релиза: BDRip 1080p
Контейнер: MKV
Видео: MPEG-4 AVC, 1920x804 (2.40:1), 23.976 fps, ~22400 kbps avg, 0.606 bit/pixel
Аудио 1: 48 kHz, AC3 Dolby Digital, 3/2 (L,C,R,l,r) + LFE ch, ~384 kbps avg
Аудио 2: 48 kHz, DTS, 3/2 (L,C,R,l,r) + LFE ch, ~1509 kbps avg
Complete name : C:\Users\1\Desktop\Triple 9 (2016) BDRip 1080p.mkv
Format : Matroska
Format version : Version 2
File size : 20.1 GiB
Duration : 1h 55mn
Overall bit rate : 24.8 Mbps
Movie name : Triple 9 (2016) BDRip 1080p
Encoded date : UTC 2016-05-24 11:21:37
Writing application : mkvmerge v3.0.0 ('Hang up your Hang-Ups') built on Dec 12 2009 15:20:35
Writing library : libebml v0.7.9 + libmatroska v0.8.1
Cover : Yes
Attachments : cover.png

Video
ID : 1
Format : AVC
Format/Info : Advanced Video Codec
Format profile : [email protected]
Format settings, CABAC : Yes
Format settings, ReFrames : 5 frames
Codec ID : V_MPEG4/ISO/AVC
Duration : 1h 55mn
Bit rate : 22.4 Mbps
Width : 1 920 pixels
Height : 804 pixels
Display aspect ratio : 2.40:1
Frame rate mode : Constant
Frame rate : 23.976 (24000/1001) fps
Color space : YUV
Chroma subsampling : 4:2:0
Bit depth : 8 bits
Scan type : Progressive
Bits/(Pixel*Frame) : 0.606
Stream size : 18.1 GiB (90%)
Title : Triple 9 (2016) BDRip 1080p
Writing library : x264 core 148 r2692.11 7386685 VietHD_Custom_64
Encoding settings : cabac=1 / ref=5 / deblock=1:-3:-3 / analyse=0x3:0x133 / me=umh / subme=10 / psy=1 / fade_compensate=0.00 / psy_rd=1.12:0.00 / mixed_ref=1 / me_range=24 / chroma_me=1 / trellis=2 / 8x8dct=1 / cqm=0 / deadzone=21,11 / fast_pskip=0 / chroma_qp_offset=-2 / threads=12 / lookahead_threads=2 / sliced_threads=0 / nr=0 / decimate=0 / interlaced=0 / bluray_compat=0 / constrained_intra=0 / fgo=0 / bframes=8 / b_pyramid=2 / b_adapt=2 / b_bias=0 / direct=3 / weightb=1 / open_gop=0 / weightp=2 / keyint=250 / keyint_min=23 / scenecut=40 / intra_refresh=0 / rc_lookahead=60 / rc=crf / mbtree=0 / crf=19.0000 / qcomp=0.63 / qpmin=0:0:0 / qpmax=69:69:69 / qpstep=4 / vbv_maxrate=62500 / vbv_bufsize=78125 / crf_max=0.0 / nal_hrd=none / filler=0 / ip_ratio=1.30 / pb_ratio=1.20 / aq=3:0.67 / aq-sensitivity=10.00 / aq-factor=1.00:1.00:1.00 / aq2=0 / aq3=0 / zones=31,607,crf=16/790,1318,crf=16/2302,2398,crf=17.5/14405,15670,crf=18/17134,17278,crf=18/17566,17710,crf=18/60970,61594,crf=17.5/71177,73577,crf=18/76001,78617,crf=18/80153,80729,crf=18/98835,99219,crf=17.5/100035,100083,crf=17.5/100155,100203,crf=17.5/101187,101331,crf=17.5/101667,101787,crf=17.5/101883,101955,crf=17.5/102195,102315,crf=17.5/107139,107451,crf=17.5/111311,111479,crf=17.5/113952,114480,crf=18/119538,119960,crf=18/120066,121074,crf=18/125884,126208,crf=17.5/126209,126809,crf=17.5/158488,166536,crf=25
Default : No
Forced : No
Color range : Limited
Matrix coefficients : BT.709

Audio #1
ID : 2
Format : AC-3
Format/Info : Audio Coding 3
Mode extension : CM (complete main)
Format settings, Endianness : Big
Codec ID : A_AC3
Duration : 1h 55mn
Bit rate mode : Constant
Bit rate : 384 Kbps
Channel(s) : 6 channels
Channel positions : Front: L C R, Side: L R, LFE
Sampling rate : 48.0 KHz
Frame rate : 31.250 fps (1536 spf)
Compression mode : Lossy
Stream size : 318 MiB (2%)
Title : iTunes
Language : Russian
Default : Yes
Forced : No

Audio #2
ID : 3
Format : DTS
Format/Info : Digital Theater Systems
Mode : 16
Format settings, Endianness : Big
Codec ID : A_DTS
Duration : 1h 55mn
Bit rate mode : Constant
Bit rate : 1 509 Kbps
Channel(s) : 6 channels
Channel positions : Front: L C R, Side: L R, LFE
Sampling rate : 48.0 KHz
Frame rate : 93.750 fps (512 spf)
Bit depth : 24 bits
Compression mode : Lossy
Stream size : 1.22 GiB (6%)
Title : Original
Language : English
Default : No
Forced : No

Text #1
ID : 4
Format : UTF-8
Codec ID : S_TEXT/UTF8
Codec ID/Info : UTF-8 Plain Text
Title : Russian
Language : Russian
Default : No
Forced : No

Text #2
ID : 5
Format : UTF-8
Codec ID : S_TEXT/UTF8
Codec ID/Info : UTF-8 Plain Text
Title : English
Language : English
Default : No
Forced : No

Menu
00:00:00.000 : en:00:00:00.000
00:05:34.459 : en:00:05:34.459
00:12:18.029 : en:00:12:18.029
00:15:57.039 : en:00:15:57.039
00:20:25.724 : en:00:20:25.724
00:28:39.468 : en:00:28:39.468
00:34:28.942 : en:00:34:28.942
00:39:29.576 : en:00:39:29.576
00:44:32.879 : en:00:44:32.879
00:48:10.888 : en:00:48:10.888
00:56:32.639 : en:00:56:32.639
01:02:03.178 : en:01:02:03.178
01:07:03.019 : en:01:07:03.019
01:12:12.620 : en:01:12:12.620
01:16:22.495 : en:01:16:22.495
01:21:41.647 : en:01:21:41.647
01:26:30.102 : en:01:26:30.102
01:32:35.675 : en:01:32:35.675
01:41:34.255 : en:01:41:34.255
01:50:13.315 : en:01:50:13.315


Внимание! AdBlock блокирует показ скриншотов, все вопросы к разработчикам )))
Трекер:  [ 25-Май-2016 13:30 ]

  

Скачать .torrent

Размер .torrent файла 50 KB


Размер: 20.07 GB
Хэш (hash) релиза: 15da9750ebac1ed7819467ca4d1652000f2e9dbc
Подписка на обновления:

Торренты, похожие на Три девятки Triple 9 скачать торрент

Форум Название Автор Размер S L Добавлен
Зарубежные фильмы до 2016 ·· Три девятки / Triple 9 (Джон Хиллкоут / John Hillcoat) [2016, США, криминал, драма, триллер, Blu-ray disc 1080p] [RUS] Galfimbul 2255716782321.01 GB 1 1 1506877732

20:08

1-Окт-17

Зарубежные фильмы до 2016 ·· Три девятки / Triple 9 (Джон Хиллкоут / John Hillcoat) [2016, США, Криминал, драма, триллер, DVD5 (сжатый)] исх. R5, Dub + Sub Ukr Galfimbul 46876221444.37 GB 0 0 1483037665

21:54

29-Дек-16

Зарубежные фильмы до 2016 ·· Три девятки / Triple 9 (Джон Хиллкоут / John Hillcoat) [2016, США, криминал, драма, триллер, DVD9] R5 Dub + Sub Ukr Galfimbul 76282593287.1 GB 0 0 1482834000

13:20

27-Дек-16

Зарубежные фильмы 2016-2019 (Новинки зарубежного кино) ·· Три девятки / Triple 9 (Джон Хиллкоут / John Hillcoat) [2016, США, криминал, драма, триллер, BDRip] Лицензия Galfimbul 15690683501.46 GB 0 0 1482313261

12:41

21-Дек-16

Зарубежные фильмы до 2016 ·· Три девятки / Triple 9 (Джон Хиллкоут / John Hillcoat) [2016, США, криминал, драма, триллер, BDRemux 1080p] AVO + MVO + Dub + Sub Eng + Original Eng Galfimbul 4355962308840.57 GB 0 0 1475269558

00:05

1-Окт-16

Зарубежные фильмы 2016-2019 (Новинки зарубежного кино) ·· Три девятки / Triple 9 (Джон Хиллкоут / John Hillcoat) [2016, США, криминал, драма, триллер, HDRip] Galfimbul 15672647681.46 GB 0 0 1471105003

19:16

13-Авг-16

Зарубежные фильмы 2016-2019 (Новинки зарубежного кино) ·· Три девятки / Triple 9 (Джон Хиллкоут / John Hillcoat) [2016, США, криминал, драма, триллер, BDRip-AVC] Dub + Sub (eng) Galfimbul 15652365951.46 GB 0 0 1464155860

08:57

25-Май-16

Зарубежные фильмы 2016-2019 (Новинки зарубежного кино) ·· Три девятки / Triple 9 (Джон Хиллкоут / John Hillcoat) [2016, США, криминал, драма, триллер, BDRip-AVC] Dub + Original + Sub (rus, eng) Galfimbul 31151356522.9 GB 0 0 1464155852

08:57

25-Май-16

Зарубежные фильмы 2016-2019 (Новинки зарубежного кино) ·· Три девятки / Triple 9 (Джон Хиллкоут / John Hillcoat) [2016, США, криминал, драма, триллер, BDRip] Dub + Sub Eng + Original Eng Galfimbul 23463492792.19 GB 0 0 1464045765

02:22

24-Май-16

Зарубежные фильмы до 2016 ·· Три девятки / Triple 9 (Джон Хиллкоут / John Hillcoat) [2016, США, криминал, драма, триллер, BDRip 720p] Dub (iTunes) + Sub Eng + Original Eng Galfimbul 99502018829.27 GB 0 0 1463655323

13:55

19-Май-16

Зарубежные фильмы 2016-2019 (Новинки зарубежного кино) ·· Три девятки / Triple 9 (Джон Хиллкоут / John Hillcoat) [2016, США, Криминал, драма, триллер, HDRip] Dub (iTunes) + Original Eng Galfimbul 22054420482.05 GB 0 0 1463609396

01:09

19-Май-16

Зарубежные фильмы 2016-2019 (Новинки зарубежного кино) ·· Три девятки / Triple 9 (Джон Хиллкоут / John Hillcoat) [2016, США, Криминал, драма, триллер, WEB-DLRip] Dub (iTunes) Galfimbul 15651655681.46 GB 0 0 1462081647

08:47

1-Май-16

Зарубежные фильмы 2016-2019 (Новинки зарубежного кино) ·· Три девятки / Triple 9 (Джон Хиллкоут / John Hillcoat) [2016, США, Криминал, драма, триллер, WEB-DLRip] iTunes Galfimbul 22008176642.05 GB 0 0 1462050621

00:10

1-Май-16

Зарубежные фильмы 2016-2019 (Новинки зарубежного кино) ·· Три девятки / Triple 9 (Джон Хиллкоут / John Hillcoat) [2016, США, Криминал, драма, триллер, WEB-DL 1080p] iTunes Galfimbul 47775014304.45 GB 0 0 1462048895

23:41

30-Апр-16

Зарубежные фильмы 2016-2019 (Новинки зарубежного кино) ·· Три девятки / Triple 9 (Джон Хиллкоут / John Hillcoat) [2016, США, Криминал, драма, триллер, WEB-DL 720p] iTunes Galfimbul 42638149253.97 GB 0 0 1462048888

23:41

30-Апр-16

Зарубежные фильмы 2016-2019 (Новинки зарубежного кино) ·· Три девятки / Triple 9 (Джон Хиллкоут / John Hillcoat) [2016, США, Криминал, драма, триллер, WEB-DLRip] iTunes Galfimbul 14674350081.37 GB 0 0 1462048883

23:41

30-Апр-16

Зарубежные фильмы 2016-2019 (Новинки зарубежного кино) ·· Три девятки / Triple 9 (Джон Хиллкоут / John Hillcoat) [2016, США, Криминал, драма, триллер, WEB-DLRip] Dub (Line) Galfimbul 15643381761.46 GB 0 0 1461669891

14:24

26-Апр-16

Зарубежные фильмы 2016-2019 (Новинки зарубежного кино) ·· Три девятки / Triple 9 (Джон Хиллкоут / John Hillcoat) [2016, США, Криминал, драма, триллер, WEB-DL 720p] Line Galfimbul 22442962622.09 GB 0 0 1461300286

07:44

22-Апр-16

Зарубежные фильмы 2016-2019 (Новинки зарубежного кино) ·· Три девятки / Triple 9 (Джон Хиллкоут / John Hillcoat) [2016, США, Криминал, драма, триллер, WEB-DL 1080p] Line Galfimbul 43627596874.06 GB 0 0 1461300278

07:44

22-Апр-16

Еще никто не оставлял запись к записи скачать торрент Три девятки Triple 9 . Будь первым!

!Обратная связь