Скачать через торрент Золотая клетка La cage dorée Фильм бесплатно в хорошем качестве torrent

Скачивайте на UnionPeer.org фильмы через торрент без регистрации. Новинки кино в хорошем качестве через торрент. На UnionPeer.org можно скачать через торрент фильмы 2014 и 2015 годов. Самые новые фильмы.

Скачать торрент Золотая клетка La cage dorée бесплатно через .torrent фильм мультфильм сериал

Статистика раздачи
Размер:  1.46 GB   |    Зарегистрирован:  7 лет 8 месяцев   |    .torrent скачан:  70 раз   |   
Раздают:  1  
 

Скачать Золотая клетка / La cage dorée (Рубен Алвес / Ruben Alves) [2013, Франция, мелодрама, BDRip] MVO (IdeaFilm) через torrent

 
 
Автор Сообщение

Galfimbul

avatar Galfimbul


Золотая клетка / La cage dorée

Страна: Франция
Жанр: мелодрама
Год выпуска: 2013
Продолжительность: 01:30:46

Перевод: Профессиональный (многоголосый закадровый) IdeaFilm
Cубтитры: нет
Оригинальная аудиодорожка: нет
Режиссер: Рубен Алвес / Ruben Alves
В ролях: Рита Бланко, Жоаким ди Алмейда, Ролан Жиро, Шанталь Лоби, Барбара Кабрита, Ланник Готри, Мария Виейра, Жаклин Корадо, Жан-Пьер Мартен, Алекс Алвес Перейра
Описание: Мария и Жозе Рибейро прожили почти тридцать лет в красивом районе Парижа. К этой паре португальских иммигрантов все соседи относятся с симпатией: Мария - отличная консьержка, а Жозе - мастер на все руки. Когда по воле обстоятельств они задумали вернуться в Португалию, их соседи и родственники решают во что бы то ни стало уговорить супругов Рибейро не уезжать. На что будут способны пойти семья и соседи, чтобы задержать пару? И хотят ли Мария с Жозе действительно оставить Францию, ставшую их золотой клеткой?
<a href="viewtopic.php?t=1460328" class="postLink"> </a>
Качество видео: BDRip | La cage dorée (2013) 1080p BD-Remux HDCLub
Формат видео: AVI

Видео: 720x384 (1.88:1), 23.976 fps, XviD build 73 ~1851 kbps avg, 0.28 bit/pixel
Аудио: 48 kHz, AC3 Dolby Digital, 3/2 (L,C,R,l,r) + LFE ch, ~448 kbps
Скачать сэмпл
Format                      : AVI
Format/Info                 : Audio Video Interleave
File size                   : 1.46 GiB
Duration                    : 1h 30mn
Overall bit rate            : 2 309 Kbps
Writing application         : VirtualDubMod 1.5.10.3 | www.virtualdub-fr.org || (build 2550/release)
Writing library             : VirtualDubMod build 2550/release

Video
ID                          : 0
Format                      : MPEG-4 Visual
Format profile              : Advanced Simple@L5
Format settings, BVOP       : 1
Format settings, QPel       : No
Format settings, GMC        : No warppoints
Format settings, Matrix     : Custom
Codec ID                    : XVID
Codec ID/Hint               : XviD
Duration                    : 1h 30mn
Bit rate                    : 1 852 Kbps
Width                       : 720 pixels
Height                      : 384 pixels
Display aspect ratio        : 1.85:1
Frame rate                  : 23.976 (23976/1000) fps
Color space                 : YUV
Chroma subsampling          : 4:2:0
Bit depth                   : 8 bits
Scan type                   : Progressive
Compression mode            : Lossy
Bits/(Pixel*Frame)          : 0.279
Stream size                 : 1.17 GiB (80%)
Writing library             : XviD 73

Audio
ID                          : 1
Format                      : AC-3
Format/Info                 : Audio Coding 3
Mode extension              : CM (complete main)
Format settings, Endianness : Big
Codec ID                    : 2000
Duration                    : 1h 30mn
Bit rate mode               : Constant
Bit rate                    : 448 Kbps
Channel(s)                  : 6 channels
Channel positions           : Front: L C R, Side: L R, LFE
Sampling rate               : 48.0 KHz
Frame rate                  : 31.250 fps (1536 spf)
Compression mode            : Lossy
Stream size                 : 291 MiB (19%)
Alignment                   : Split accross interleaves
Interleave, duration        : 42 ms (1.00 video frame)
Interleave, preload duratio : 500 ms


Внимание! AdBlock блокирует показ скриншотов, все вопросы к разработчикам )))
Трекер:  [ 02-Июн-2016 00:30 ]

  

Скачать .torrent

Размер .torrent файла 15 KB


Размер: 1.46 GB
Хэш (hash) релиза: 3e870a532d1218495f4262b6303cda0fa6d41f5c
Подписка на обновления:

Торренты, похожие на Золотая клетка La cage dorée скачать торрент

Форум Название Автор Размер S L Добавлен
Зарубежные фильмы до 2016 ·· Золотая клетка / La cage dorée (Рубен Алвес / Ruben Alves) [2013, Франция, мелодрама, BDRip] MVO (IdeaFilm) Galfimbul 783536128747 MB 0 0 1464895789

22:29

2-Июн-16

Еще никто не оставлял запись к записи скачать торрент Золотая клетка La cage dorée . Будь первым!

!Обратная связь