Скачать через торрент Золотая клетка La cage doree Фильм бесплатно в хорошем качестве torrent

Скачивайте на UnionPeer.org фильмы через торрент без регистрации. Новинки кино в хорошем качестве через торрент. На UnionPeer.org можно скачать через торрент фильмы 2014 и 2015 годов. Самые новые фильмы.

Скачать торрент Золотая клетка La cage doree бесплатно через .torrent фильм мультфильм сериал

Статистика раздачи
Размер:  1.52 GB   |    Зарегистрирован:  7 лет 9 месяцев   |    .torrent скачан:  62 раза   |   
Раздают:  1  
 

Скачать Золотая клетка / La cage doree (Рубен Алвес / Ruben Alves) [2013, Франция, Комедия, драма, HDRip-AVC] Original Fre + Sub Rus через torrent

 
 
Автор Сообщение

Galfimbul

avatar Galfimbul


Золотая клетка / La cage doree

Страна: Франция
Жанр: Комедия, драма
Год выпуска: 2013
Продолжительность: 1:30:46

Перевод: Субтитры (Playball)
Cубтитры: русские
Оригинальная аудиодорожка: французский

Режиссер: Рубен Алвес / Ruben Alves

В ролях: Рита Бланко, Жоаким де Алмейда, Ролан Жиро, Шанталь Лоби, Барбара Кабрита, Ланник Готри, Николь Круазиль и др.

Описание: Мария и Жозе Рибейро прожили почти тридцать лет в красивом районе Парижа. К этой паре португальских иммигрантов все соседи относятся с симпатией: Мария — отличная консьержка, а Жозе — мастер на все руки. Когда они задумали вернуться в Португалию, их соседи решают во что бы то ни стало уговорить супругов Рибейро не уезжать. На что будут способны пойти семья и соседи, чтобы задержать пару? И в конце концов, Мария и Жозе действительно хотят оставить Францию и свою золотую клетку?

Дополнительные сведения: Приз зрительских симпатий Премии Европейской киноакадемии 2013
Номинант премии Сезар-2014 как лучшая дебютная работа.

Сэмпл: https://www.sendspace.com/file/kte6kt

Качество видео: HDRip-AVC
Формат видео: MKV

Видео: AVC, 1 276*692 (1.85:1), 23.976 fps, 2 200 Kbps
Аудио: AC-3, 192 Kbps, 2 channels
Формат субтитров: softsub (SRT)
1
00:00:50,600 --> 00:00:54,530
Куда прете?
Видите - подметаю.

2
00:00:54,580 --> 00:00:56,980
- Привет, Росария.
- Привет, Мария.

3
00:00:57,840 --> 00:01:00,560
Говорю же - нет.
Пошел прочь!

4
00:01:01,900 --> 00:01:04,810
Привет, Мария. Почта.

5
00:01:04,900 --> 00:01:08,820
- Спасибо, хорошего дня.
- Пока.

6
00:01:27,600 --> 00:01:32,300
Консьерж на работе.

7
00:01:33,820 --> 00:01:35,920
Педро Энрике!

8
00:01:43,080 --> 00:01:46,150
- Опоздаешь.
- Мам, я никогда не опаздываю.

9
00:01:52,900 --> 00:01:54,300
Готово.

10
00:02:12,600 --> 00:02:14,420
Спасибо.

11
00:02:17,600 --> 00:02:19,560
Здравствуйте, мадам Решер.

12
00:02:21,600 --> 00:02:23,520
Хосе!

13
00:02:24,600 --> 00:02:26,760
Одолжишь тачку?

14
00:02:30,600 --> 00:02:31,760
Спасибо.

15
00:02:36,600 --> 00:02:39,560
- Здравствуйте, дети.
- Привет, Мария.

16
00:02:40,600 --> 00:02:43,280
Пошли.

17
00:02:44,600 --> 00:02:46,720
Я 3 недели пытаюсь
до нее дозвониться.

18
00:02:46,760 --> 00:02:47,560
Вот сучка.

19
00:02:47,630 --> 00:02:51,900
- Они ничего не делают.
- Глянь...

20
00:02:52,150 --> 00:02:54,790
"Удачного дня, рыбонька."

21
00:03:06,600 --> 00:03:08,840
- Идешь?
- Да.

22
00:03:26,600 --> 00:03:29,700
Золотая клетка

23
00:03:31,600 --> 00:03:36,560
Я слышала, что жюри
в этом году особенно строгое.

24
00:03:36,630 --> 00:03:39,600
Будут цепляться к любой мелочи.

25
00:03:39,650 --> 00:03:42,560
Один небрежно обрезанный куст
и все,

26
00:03:42,600 --> 00:03:44,560
прощай, главный приз.
General
Unique ID : 186231377811823373984590515085182357365 (0x8C1ADBD47FC2629BABC288B1F54DCF75)
Complete name : D:\КИНО\1Tracker\Золотая клетка.mkv
Format : Matroska
Format version : Version 2
File size : 1.52 GiB
Duration : 1h 30mn
Overall bit rate : 2 394 Kbps
Encoded date : UTC 2013-08-24 21:23:02
Writing application : mkvmerge v5.8.0 ('No Sleep / Pillow') built on Sep 2 2012 15:37:04
Writing library : Lavf55.11.101

Video
ID : 1
Format : AVC
Format/Info : Advanced Video Codec
Format profile : [email protected]
Format settings, CABAC : Yes
Format settings, ReFrames : 6 frames
Codec ID : V_MPEG4/ISO/AVC
Duration : 1h 30mn
Bit rate : 2 200 Kbps
Width : 1 276 pixels
Height : 692 pixels
Display aspect ratio : 1.85:1
Original display aspect ratio : 1.85:1
Frame rate mode : Constant
Frame rate : 23.976 fps
Color space : YUV
Chroma subsampling : 4:2:0
Bit depth : 8 bits
Scan type : Progressive
Bits/(Pixel*Frame) : 0.104
Stream size : 1.37 GiB (90%)
Writing library : x264 core 135 r2345
Encoding settings : cabac=1 / ref=6 / deblock=1:0:0 / analyse=0x1:0x131 / me=umh / subme=8 / psy=1 / psy_rd=0.00:0.00 / mixed_ref=0 / me_range=16 / chroma_me=1 / trellis=0 / 8x8dct=0 / cqm=0 / deadzone=21,11 / fast_pskip=1 / chroma_qp_offset=0 / threads=3 / lookahead_threads=1 / sliced_threads=0 / nr=0 / decimate=1 / interlaced=0 / bluray_compat=0 / constrained_intra=0 / bframes=6 / b_pyramid=0 / b_adapt=1 / b_bias=0 / direct=3 / weightb=1 / open_gop=0 / weightp=2 / keyint=230 / keyint_min=23 / scenecut=40 / intra_refresh=0 / rc_lookahead=40 / rc=2pass / mbtree=1 / bitrate=2200 / ratetol=1.0 / qcomp=0.60 / qpmin=10 / qpmax=69 / qpstep=4 / cplxblur=20.0 / qblur=0.5 / vbv_maxrate=24000 / vbv_bufsize=24000 / nal_hrd=none / ip_ratio=1.40 / aq=1:1.00
Language : French
Default : Yes
Forced : No

Audio
ID : 2
Format : AC-3
Format/Info : Audio Coding 3
Mode extension : CM (complete main)
Format settings, Endianness : Big
Codec ID : A_AC3
Duration : 1h 30mn
Bit rate mode : Constant
Bit rate : 192 Kbps
Channel(s) : 2 channels
Channel positions : Front: L R
Sampling rate : 48.0 KHz
Bit depth : 16 bits
Compression mode : Lossy
Stream size : 125 MiB (8%)
Title : DTS 5.1
Language : French
Default : Yes
Forced : No

Text
ID : 3
Format : UTF-8
Codec ID : S_TEXT/UTF8
Codec ID/Info : UTF-8 Plain Text
Default : Yes
Forced : No


Внимание! AdBlock блокирует показ скриншотов, все вопросы к разработчикам )))
Трекер:  [ 04-Июн-2016 20:30 ]

  

Скачать .torrent

Размер .torrent файла 15 KB


Размер: 1.52 GB
Хэш (hash) релиза: 5ba0ce25f01843d3653540912583ee219bd0d6f3
Подписка на обновления:

Еще никто не оставлял запись к записи скачать торрент Золотая клетка La cage doree . Будь первым!

!Обратная связь