Скачать порно через торрент Alt, Reich Und Pervers Пожилой, богатый и развратный UnionPeer.org бесплатно онлайн HD качество

Скачать новое порно 2015, 2014 новинки через торрент UnionPeer.org

Порно торрент бесплатно ЮнионПир.орг

Статистика раздачи
Размер:  1.1 GB   |    Зарегистрирован:  7 лет 8 месяцев   |    .torrent скачан:  2357 раз   |   
Раздают:  1  
 

Скачать Alt, Reich Und Pervers / Пожилой, богатый и развратный (Moli, Magma) [1995 г., Feature, DVDRip] ( Anita Blond, Anita Dark, Marietta, Vivienne Morillo ) через torrent

 
 
Автор Сообщение

Galfimbul

avatar Galfimbul


Alt, Reich Und Pervers | Пожилой, богатый и развратный

[url=...1076208] [/url][url=...1180812] [/url]
Год производства: 1995 г.
Страна: Germany | Германия
Жанр: Feature
Продолжительность: 01:23:33
Язык: Немецкий | German

Режиссер: Moli
Студия: Magma

В ролях: [url=...1076208]Anita Blond[/url], [url=...1180812]Anita Dark[/url], Marietta, Vivienne Morillo

Описание: Фильм про супружескую пару в возрасте, живущую в своем особняке вместе с прислугой. Несмотря на свой возраст пара никак не хочет забывать молодость и пронится друг с другом и с прислугой, порой при не совсем обычных обстоятельствах.

Scene Breakdowns:
Scene 1. [url=...1180812]Anita Dark[/url] [blowjob], guy
Scene 2. Marietta [masturbation]
Scene 3. [url=...1076208]Anita Blond[/url], guy
Scene 4. Vivienne Morillo, guy
Scene 5. Vivienne Morillo, guy
Scene 6. Marietta [anal], guy
Scene 7. XNK2335, guy
Scene 8. [url=...1180812]Anita Dark[/url], Marietta, guy

Качество видео: DVDRip
Формат видео: MP4
Видео: AVC, 768x576 (4:3), 25.000 fps, 1 794 Kbps (0.162 bit/pixel)
Аудио: AAC LC, 22.05 KHz, 2 ch, 80.0 Kbps, VBR

[url=...999732]Alt, Reich und Pervers (449 MB)[/url]
[url=...1129890]Alt, Reich Und Pervers 2 (564 MB)[/url]
General
Format : MPEG-4
Format profile : Base Media / Version 2
Codec ID : mp42
File size : 1.10 GiB
Duration : 1h 23mn
Overall bit rate : 1 877 Kbps
Encoded date : UTC 2016-05-26 16:36:06
Tagged date : UTC 2016-05-26 17:42:51
Video #1
ID : 1
Format : AVC
Format/Info : Advanced Video Codec
Format profile : [email protected]
Format settings, CABAC : Yes
Format settings, ReFrames : 2 frames
Codec ID : avc1
Codec ID/Info : Advanced Video Coding
Duration : 1h 23mn
Bit rate mode : Variable
Bit rate : 1 794 Kbps
Maximum bit rate : 4 694 Kbps
Width : 768 pixels
Height : 576 pixels
Display aspect ratio : 4/3
Frame rate mode : Constant
Frame rate : 25.000 fps
Resolution : 24 bits
Colorimetry : 4:2:0
Scan type : Progressive
Bits/(Pixel*Frame) : 0.162
Stream size : 1.05 GiB (96%)
Encoded date : UTC 2016-05-26 16:36:06
Tagged date : UTC 2016-05-26 17:42:51
Audio #2
ID : 2
Format : AAC
Format/Info : Advanced Audio Codec
Format version : Version 4
Format profile : LC
Format settings, SBR : No
Codec ID : 40
Duration : 1h 23mn
Bit rate mode : Variable
Bit rate : 80.0 Kbps
Maximum bit rate : 99.5 Kbps
Channel(s) : 2 channels
Channel positions : L R
Sampling rate : 22.05 KHz
Resolution : 16 bits
Stream size : 47.8 MiB (4%)
Title : und
Encoded date : UTC 2016-05-26 16:36:06
Tagged date : UTC 2016-05-26 17:42:51


Внимание! AdBlock блокирует показ скриншотов, все вопросы к разработчикам )))
Трекер:  [ 05-Июн-2016 00:00 ]

  

Скачать .torrent

Размер .torrent файла 11 KB


Размер: 1.1 GB
Хэш (hash) релиза: c90fe15477e5bec2f0c38bc20a56ebb7a5839a68

Торренты, похожие на Alt, Reich Und Pervers Пожилой, богатый и развратный скачать торрент

Форум Название Автор Размер S L Добавлен
Фильмы с сюжетом / Feature & Vignettes ·· Alt, Reich Und Pervers / Пожилой, Богатый И Развратный (Moli, Magma) [1995 г., Feature, DVDRip]Anita Blond,Anita Dark,Marietta,Vivienne Morillo Galfimbul 754581618720 MB 1 2 1420831822

22:30

9-Янв-15

Фильмы без сюжета 1991-2010 / All Sex & Amateur 1991-2010 ·· Alt, Reich und Pervers / Пожилой, богатый и развратный (MOLI / Magma) [1995 г., Hardcore, Blowjob, Threesome, CamRip] Galfimbul 470683648449 MB 0 0 1364550608

12:50

29-Мар-13

Еще никто не оставлял запись к записи скачать торрент Alt, Reich Und Pervers Пожилой, богатый и развратный . Будь первым!

!Обратная связь