Скачать через торрент Моя большая греческая свадьба 2 My Big Fat Greek Wedding 2 Фильм бесплатно в хорошем качестве torrent

Скачивайте на UnionPeer.org фильмы через торрент без регистрации. Новинки кино в хорошем качестве через торрент. На UnionPeer.org можно скачать через торрент фильмы 2014 и 2015 годов. Самые новые фильмы.

Скачать торрент Моя большая греческая свадьба 2 My Big Fat Greek Wedding 2 бесплатно через .torrent фильм мультфильм сериал

Статистика раздачи
Размер:  1.37 GB   |    Зарегистрирован:  7 лет 8 месяцев   |    .torrent скачан:  106 раз   |   
Раздают:  1  
 

Скачать Моя большая греческая свадьба 2 / My Big Fat Greek Wedding 2 (Кирк Джонс / Kirk Jones) [2016, США / Канада, мелодрама, комедия, HDRip] MVO (Parovoz Production) через torrent

 
 
Автор Сообщение

Galfimbul

avatar Galfimbul


Моя большая греческая свадьба 2 / My Big Fat Greek Wedding 2

Страна: США / Канада
Жанр: мелодрама, комедия
Год выпуска: 2016
Продолжительность: 01:33:53

Перевод: Любительский (многоголосый закадровый) Parovoz Production
Cубтитры: нет
Оригинальная аудиодорожка: нет

Режиссер: Кирк Джонс / Kirk Jones

В ролях: Ниа Вардалос, Джон Корбетт, Майкл Константин, Лэйни Казан, Андреа Мартин, Джиа Каридес, Джои Фатоне, Елена Кампурис

Описание: История Тулы Портокалос-Миллер продолжается. Туристическая фирма, в которой она работала, закрылась, как и семейный бизнес по химчистке. Теперь Тула работает в семейном ресторане. Ее дочери Пэрис надоело, что семья постоянно давит на нее, поэтому она решает поступить в колледж в другом городе, что расстраивает всех членов семейства. Вскоре после этого родители Тулы узнают, что технически они все еще не женаты. Так что Портокалосы готовятся к новой крупной свадьбе, которая привнесет сумятицу в жизнь каждого из них.

Сэмпл: http://multi-up.com/1105773

Качество видео: HDRip
Формат видео: AVI

Видео: XviD 1.2.1, 720x304, (2,35:1), 23,976 fps, 1694 Кбит/с, 8 бит
Аудио: Русский (AC-3, 2 ch (Front: L R), 48,0 KHz, 384 Kbps)
Общее
Полное имя : F:\Видеофильмы\В и д е о\Моя большая греческая свадьба 2 (комедия, мелодрама 2016г).avi
Формат : AVI
Формат/Информация : Audio Video Interleave
Размер файла : 1,37 Гбайт
Продолжительность : 1 ч. 33 м.
Общий поток : 2087 Кбит/сек
Программа кодирования : VirtualDubMod 1.5.10.3 | www.virtualdub-fr.org || (build 2550/release)
Библиотека кодирования : VirtualDubMod build 2550/release

Видео
Идентификатор : 0
Формат : MPEG-4 Visual
Профиль формата : Advanced Simple@L5
Параметр BVOP формата : 2
Параметр QPel формата : Нет
Параметр GMC формата : Без точки перехода
Параметр матрицы формата : Выборочная
Идентификатор кодека : XVID
Идентификатор кодека/Подсказка : XviD
Продолжительность : 1 ч. 33 м.
Битрейт : 1694 Кбит/сек
Ширина : 720 пикселей
Высота : 304 пикселя
Соотношение сторон : 2,35:1
Частота кадров : 23,976 (23976/1000) кадра/сек
Цветовое пространство : YUV
Субдискретизация насыщенности : 4:2:0
Битовая глубина : 8 бит
Тип развёртки : Прогрессивная
Метод сжатия : С потерями
Бит/(Пиксели*Кадры) : 0.323
Размер потока : 1,11 Гбайт (81%)
Библиотека кодирования : XviD 1.2.1 (UTC 2008-12-04)

Аудио
Идентификатор : 1
Формат : AC-3
Формат/Информация : Audio Coding 3
Расширение режима : CM (complete main)
Параметр Endianness формата : Big
Идентификатор кодека : 2000
Продолжительность : 1 ч. 33 м.
Вид битрейта : Постоянный
Битрейт : 384 Кбит/сек
Каналы : 2 канала
Расположение каналов : Front: L R
Частота : 48,0 КГц
Частота кадров : 31,250 кадров/сек (1536 spf)
Метод сжатия : С потерями
Размер потока : 258 Мбайт (18%)
Выравнивание : Разделение по промежуткам
Продолжительность промежутка : 42 мс. (1,00 видеокадр)
Время предзагрузки промежутка : 500 мс.


Внимание! AdBlock блокирует показ скриншотов, все вопросы к разработчикам )))
Трекер:  [ 14-Июн-2016 13:00 ]

  

Скачать .torrent

Размер .torrent файла 14 KB


Размер: 1.37 GB
Хэш (hash) релиза: 66332f061e88d9dfc92ff51166427b9ffa628b09
Подписка на обновления:

Торренты, похожие на Моя большая греческая свадьба 2 My Big Fat Greek Wedding 2 скачать торрент

Форум Название Автор Размер S L Добавлен
Зарубежные фильмы 2016-2019 (Новинки зарубежного кино) ·· Моя большая греческая свадьба 2 / My Big Fat Greek Wedding 2 (Кирк Джонс / Kirk Jones) [2016, США, Канада, мелодрама, комедия, BDRip-AVC] Dub + Original Eng + Sub Eng Galfimbul 22043917392.05 GB 0 0 1484234878

18:27

12-Янв-17

Зарубежные фильмы 2016-2019 (Новинки зарубежного кино) ·· Моя большая греческая свадьба 2 / My Big Fat Greek Wedding 2 (Кирк Джонс / Kirk Jones) [2016, США / Канада, мелодрама, комедия, BDRip 1080p] iTunes Galfimbul 79701585727.42 GB 0 0 1481543737

14:55

12-Дек-16

Зарубежные фильмы 2016-2019 (Новинки зарубежного кино) ·· Моя большая греческая свадьба 2 / My Big Fat Greek Wedding 2 (Кирк Джонс / Kirk Jones) [2016, США / Канада, мелодрама, комедия, BDRip 720p] iTunes Galfimbul 45639628504.25 GB 0 0 1481543733

14:55

12-Дек-16

Зарубежные фильмы 2016-2019 (Новинки зарубежного кино) ·· Моя большая греческая свадьба 2 / My Big Fat Greek Wedding 2 (Кирк Джонс) [2016, Мелодрама, комедия, BDRip 720p] Galfimbul 49288020264.59 GB 0 0 1465881086

08:11

14-Июн-16

Зарубежные фильмы 2016-2019 (Новинки зарубежного кино) ·· Моя большая греческая свадьба 2 / My Big Fat Greek Wedding 2 (Кирк Джонс) [2016, Мелодрама, комедия, BDRip 1080p] Galfimbul 84848216107.9 GB 0 0 1465881065

08:11

14-Июн-16

Зарубежные фильмы 2016-2019 (Новинки зарубежного кино) ·· Моя большая греческая свадьба 2 / My Big Fat Greek Wedding 2 (Кирк Джонс) [2016, Мелодрама, комедия, HDRip] Galfimbul 14694891521.37 GB 0 0 1465877535

07:12

14-Июн-16

Зарубежные фильмы 2016-2019 (Новинки зарубежного кино) ·· Моя большая греческая свадьба 2 / My Big Fat Greek Wedding 2 (Кирк Джонс) [2016, Мелодрама, комедия, WEBRip 720р] Galfimbul 28140700682.62 GB 0 0 1464754307

07:11

1-Июн-16

Зарубежные фильмы 2016-2019 (Новинки зарубежного кино) ·· Моя большая греческая свадьба 2 / My Big Fat Greek Wedding 2 (Кирк Джонс) [2016, Мелодрама, комедия, WEBRip] Galfimbul 14675619841.37 GB 0 0 1464754298

07:11

1-Июн-16

Зарубежные фильмы 2016-2019 (Новинки зарубежного кино) ·· Моя большая греческая свадьба 2 / My Big Fat Greek Wedding 2 (Кирк Джонс) [2016, Мелодрама, комедия, TS] Galfimbul 733509632700 MB 0 0 1460527578

09:06

13-Апр-16

Зарубежные фильмы 2016-2019 (Новинки зарубежного кино) ·· Моя большая греческая свадьба 2 / My Big Fat Greek Wedding 2 (Кирк Джонс) [2016, Мелодрама, комедия, TS] Galfimbul 14733721601.37 GB 0 0 1460520814

07:13

13-Апр-16

Еще никто не оставлял запись к записи скачать торрент Моя большая греческая свадьба 2 My Big Fat Greek Wedding 2 . Будь первым!

!Обратная связь