Скачать через торрент Биркебейнеры Birkebeinerne Фильм бесплатно в хорошем качестве torrent

Скачивайте на UnionPeer.org фильмы через торрент без регистрации. Новинки кино в хорошем качестве через торрент. На UnionPeer.org можно скачать через торрент фильмы 2014 и 2015 годов. Самые новые фильмы.

Скачать торрент Биркебейнеры Birkebeinerne бесплатно через .torrent фильм мультфильм сериал

Статистика раздачи
Размер:  1.45 GB   |    Зарегистрирован:  7 лет 8 месяцев   |    .torrent скачан:  232 раза   |   
Раздают:  1  
 

Скачать Биркебейнеры / Birkebeinerne (Нильс Гёуп / Nils Gaup) [2016, Норвегия, боевик, драма, приключения, HDRip] VO через torrent

 
 
Автор Сообщение

Galfimbul

avatar Galfimbul


Биркебейнеры / Birkebeinerne

Страна: Норвегия
Жанр: боевик, драма, приключения
Год выпуска: 2016
Продолжительность: 01:39:24

Перевод: Одноголосый закадровый (перевод Ольга Тропашко)
Cубтитры: нет
Режиссер: Нильс Гёуп / Nils Gaup

В ролях: Андерс Дальберг, Эльг Элгесем, Пол Сверре Валхейм Хаген, Торбьорн Харр, Беньямин Хельстад, Кристофер Хивью, Стиг Хенрик Хофф, Еппе Леурсен, Николай Ли Каас, Адам Немет

Описание: 1204 год, Норвегию раздирает гражданская война. Незаконнорожденного сына короля Хокона III Сверрессона и Инги из Вартейга хранят в глубокой тайне. Мальчик был внебрачным сыном короля и родился после его смерти, что спровоцировало кровавую междоусобицу. Биркебейнеры (ополчение, созданное его дедом, королем Сверре Сигурдсоном) признали мальчика наследником трона Норвегии. Однако католические священники объявили охоту на ребенка с целью его уничтожения. В 1206 году группа вооруженных биркебейнеров помогла Инги и Хокону бежать на север под покровительством короля Инге Бордссона. По пути их небольшой отряд попал в снежную бурю, но два могучих воина, Торстейн Шевла и Шьервальд Шрукка, продолжали продвигаться на лыжах, неся ребенка на руках. Когда Хокона доставили в Тронхейм, король Инге взял его под своё покровительство.

Сэмпл: http://multi-up.com/1105950

Качество видео: HDRip
Формат видео: AVI

Видео: MPEG-4 1885 Кбит/сек 720 x 304 24.000 fps
Аудио: AC-3 192 Кбит/сек 2 канала, 48,0 КГц
Формат : AVI
Формат/Информация : Audio Video Interleave
Размер файла : 1,45 Гбайт
Продолжительность : 1 ч. 39 м.
Общий поток : 2086 Кбит/сек
Программа кодирования : VirtualDubMod 1.5.10.3 | www.virtualdub-fr.org || (build 2550/release)
Библиотека кодирования : VirtualDubMod build 2550/release

Видео
Идентификатор : 0
Формат : MPEG-4 Visual
Профиль формата : Advanced Simple@L5
Параметр BVOP формата : 1
Параметр QPel формата : Нет
Параметр GMC формата : Без точки перехода
Параметр матрицы формата : Выборочная
Идентификатор кодека : XVID
Идентификатор кодека/Подсказка : XviD
Продолжительность : 1 ч. 39 м.
Битрейт : 1885 Кбит/сек
Ширина : 720 пикселей
Высота : 304 пикселя
Соотношение сторон : 2,35:1
Частота кадров : 24,000 кадра/сек
Цветовое пространство : YUV
Субдискретизация насыщенности : 4:2:0
Битовая глубина : 8 бит
Тип развёртки : Прогрессивная
Метод сжатия : С потерями
Бит/(Пиксели*Кадры) : 0.359
Размер потока : 1,31 Гбайт (90%)
Библиотека кодирования : XviD 73

Аудио
Идентификатор : 1
Формат : AC-3
Формат/Информация : Audio Coding 3
Расширение режима : CM (complete main)
Параметр Endianness формата : Big
Идентификатор кодека : 2000
Продолжительность : 1 ч. 39 м.
Вид битрейта : Постоянный
Битрейт : 192 Кбит/сек
Каналы : 2 канала
Расположение каналов : Front: L R
Частота : 48,0 КГц
Битовая глубина : 16 бит
Метод сжатия : С потерями
Размер потока : 137 Мбайт (9%)
Выравнивание : Разделение по промежуткам
Продолжительность промежутка : 42 мс. (1,00 видеокадр)
Время предзагрузки промежутка : 500 мс.


Внимание! AdBlock блокирует показ скриншотов, все вопросы к разработчикам )))
Трекер:  [ 16-Июн-2016 18:00 ]

  

Скачать .torrent

Размер .torrent файла 15 KB


Размер: 1.45 GB
Хэш (hash) релиза: 2b660ebc3f9457f42895d4d5e4b0870530dd0f27
Подписка на обновления:

Торренты, похожие на Биркебейнеры Birkebeinerne скачать торрент

Форум Название Автор Размер S L Добавлен
Зарубежные фильмы 2016-2019 (Новинки зарубежного кино) ·· Биркебейнеры / Birkebeinerne (Нильс Гёуп / Nils Gaup) [2016, Норвегия, Дания, Швеция, Ирландия, Венгрия, боевик, драма, приключения, BDRip] MVO + Sub Rus Galfimbul 15640833521.46 GB 0 0 1529233268

14:01

17-Июн-18

Зарубежные фильмы 2016-2019 (Новинки зарубежного кино) ·· Биркебейнеры / Birkebeinerne (Нильс Гёуп / Nils Gaup) [2016, Норвегия, боевик, драма, приключения, BDRip-AVC] MVO (ColdFilm) Galfimbul 21070949141.96 GB 0 0 1466847461

12:37

25-Июн-16

Зарубежные фильмы 2016-2019 (Новинки зарубежного кино) ·· Биркебейнеры / Birkebeinerne (Нильс Гёуп / Nils Gaup) [2016, Норвегия, боевик, драма, приключения, BDRip] MVO (ColdFilm) Galfimbul 15681044481.46 GB 0 0 1466841651

11:00

25-Июн-16

Зарубежные фильмы 2016-2019 (Новинки зарубежного кино) ·· Биркебейнеры / Birkebeinerne (Нильс Гёуп) [2016, боевик, драма, приключения, HDRip] Galfimbul 15553556481.45 GB 0 0 1465996431

16:13

15-Июн-16

Еще никто не оставлял запись к записи скачать торрент Биркебейнеры Birkebeinerne . Будь первым!

!Обратная связь