Скачать порно через торрент Depraved Fantasies Развращенные фантазии UnionPeer.org бесплатно онлайн HD качество

Скачать новое порно 2015, 2014 новинки через торрент UnionPeer.org

Порно торрент бесплатно ЮнионПир.орг

Статистика раздачи
Размер:  327 MB   |    Зарегистрирован:  12 лет   |    .torrent скачан:  242 раза   |   
Раздают:  1   Качают:  1  
 

Скачать Depraved Fantasies / Развращенные фантазии (John T Bone, Zane) [2001 г., Feature, Gonzo, Role Playing, Double Anal, DVDRip] через torrent

 
 
Автор Сообщение

Galfimbul

avatar Galfimbul


Depraved Fantasies / Развращенные фантазии

Год производства: 1994 г.
Жанр: Feature, Gonzo, Role Playing, Double Anal
Язык: Английский

Режиссер: John T Bone
Студия: Zane

В ролях: Bionca - Damien Wolf - Debi Diamond - Derrick Taylor - FM Bradley - Lady Paree - Mick Soft - Ron Jeremy - Steve Hatcher - Tammi Ann

Описание: There's a fine line between fantasy and reality... "A filthy mind is a terrible thing to waste" - John T Bone

Качество видео: DVDRip
Формат видео: AVI
Видео кодек: DivX
Аудио кодек: MP3

Video: DivX 5 352x240 29.97fps 780 Kbps [Stream 00]
Audio: MPEG Audio Layer 3 44100Hz stereo 192kbps [01) Audio Stream]
General
Format : AVI
Format/Info : Audio Video Interleave
File size : 327 MiB
Duration : 46mn 27s
Overall bit rate : 984 Kbps

Video
ID : 0
Format : MPEG-4 Visual
Format settings, BVOP : Yes
Format settings, QPel : No
Format settings, GMC : No warppoints
Format settings, Matrix : Default (H.263)
Muxing mode : Packed bitstream
Codec ID : DX50
Codec ID/Hint : DivX 5
Duration : 46mn 27s
Bit rate : 780 Kbps
Width : 352 pixels
Height : 240 pixels
Display aspect ratio : 3:2
Frame rate : 29.970 fps
Standard : NTSC
Color space : YUV
Chroma subsampling : 4:2:0
Bit depth : 8 bits
Scan type : Progressive
Bits/(Pixel*Frame) : 0.308
Stream size : 259 MiB (79%)
Writing library : DivX 5.2.1 (DrDivX 106) (UTC 2004-09-08)

Audio
ID : 1
Format : MPEG Audio
Format version : Version 1
Format profile : Layer 3
Codec ID : 55
Codec ID/Hint : MP3
Duration : 46mn 27s
Bit rate mode : Constant
Bit rate : 192 Kbps
Channel(s) : 2 channels
Sampling rate : 44.1 KHz
Video delay : 26ms
Stream size : 63.8 MiB (20%)
Alignment : Split accross interleaves
Interleave, duration : 33 ms (1.00 video frame)
Title : Audio Stream


Внимание! AdBlock блокирует показ скриншотов, все вопросы к разработчикам )))

Трекер:  [ 26-Окт-2011 19:19 ]

  

Скачать .torrent

Размер .torrent файла 13 KB


Размер: 327 MB
Хэш (hash) релиза: c776a9536aa6ba2b1bd23fd2de455d4b955a5d3f

Торренты, похожие на Depraved Fantasies Развращенные фантазии скачать торрент

Форум Название Автор Размер S L Добавлен
Архив (общий) ·· Depraved Fantasies / Развращенные фантазии (John T. Bone, Fantastic Pictures) [1994 г., Feature, DP, Oral, Anal, All Sex, VHSRip] Galfimbul 781771275746 MB 0 0 1337620680

20:18

21-Май-12

Фильмы с сюжетом / Feature & Vignettes ·· Depraved Fantasies 2 / Развращенные фантазии 2 (John T. Bone, Fantastic Pictures) [1994 г., Feature, Fantasy, Anal, DP, Sex Toys, Plot Based, DVDRip] Секс с кроликом, волком или поросятами... куда ещё могут завести развращённые фантазии? Galfimbul 772169310736 MB 0 0 1364309512

17:51

26-Мар-13

Фильмы с сюжетом / Feature & Vignettes ·· Depraved Fantasies 7 / Развращенные фантазии 7 (Matt Zane, Zane Entertainment Group) [1999 г., Feature, Fantasy, Sex Toys, Interracial, DVDRip] Shanna McCullough, Cheyenne Silver, T.J. Hart Galfimbul 14679838721.37 GB 0 0 1304709798

22:23

6-Май-11

БДСМ / BDSM ·· [Sexandsubmission.com / Kink.com] Apr 24, 2015 - Mr. Pete and Mia Li / The Depraved Doctor's Anal Fantasy / Анальная фантазия развращённой докторши / 37747 [2015 г., BDSM, Bondage, All sex, Anal, Asian, WDAC, 540p, SiteRip] Galfimbul 534773777510 MB 0 0 1429932309

06:25

25-Апр-15

Еще никто не оставлял запись к записи скачать торрент Depraved Fantasies Развращенные фантазии . Будь первым!

!Обратная связь