Скачать через торрент День матери Mothers and Daughters Фильм бесплатно в хорошем качестве torrent

Скачивайте на UnionPeer.org фильмы через торрент без регистрации. Новинки кино в хорошем качестве через торрент. На UnionPeer.org можно скачать через торрент фильмы 2014 и 2015 годов. Самые новые фильмы.

Скачать торрент День матери Mothers and Daughters бесплатно через .torrent фильм мультфильм сериал

Статистика раздачи
Размер:  1.46 GB   |    Зарегистрирован:  7 лет 11 месяцев   |    .torrent скачан:  115 раз   |   
Раздают:  1  
 

Скачать День матери / Mothers and Daughters (Пол Даддридж / Paul Duddridge, Найджел Леви / Nigel Levy) [2016, США, Драма, WEB-DLRip] DVO (RecentFilms) через torrent

 
 
Автор Сообщение

Galfimbul

avatar Galfimbul


День матери / Mothers and Daughters

Страна: США
Жанр: Драма
Год выпуска: 2016
Продолжительность: 01:31:39

Перевод: Любительский (двухголосый закадровый) RecentFilms
Cубтитры: нет
Режиссер: Пол Даддридж / Paul Duddridge, Найджел Леви / Nigel Levy

В ролях: Кристина Риччи, Шэрон Стоун, Кортни Кокс, Роселин Санчес, Сьюзен Сарандон, Мира Сорвино, Сэлма Блэр, Ева Амурри, Пол Уэсли, Наталия Гуслистая

Описание: История описывает отношения десяти женщин со своими дочерьми накануне Дня матери.

Сэмпл: http://sendfile.su/1243980

Качество видео: WEB-DLRip
Формат видео: AVI

Видео: 720x400 (1.80:1), 23.976 fps, XviD build 73 ~2084 kbps avg, 0.30 bit/pixel
Аудио: 48 kHz, AC3 Dolby Digital, 2/0 (L,R) ch, ~192 kbps - RecentFilms
General
Complete name : E:\Zona Downloads\Mothers.and.Daughters.2016.WEB-DLRip.1.46Gb..avi
Format : AVI
Format/Info : Audio Video Interleave
File size : 1.46 GiB
Duration : 1h 31mn
Overall bit rate : 2 284 Kbps

Video
ID : 0
Format : MPEG-4 Visual
Format profile : Advanced Simple@L5
Format settings, BVOP : 1
Format settings, QPel : No
Format settings, GMC : No warppoints
Format settings, Matrix : Custom
Codec ID : XVID
Codec ID/Hint : XviD
Duration : 1h 31mn
Bit rate : 2 085 Kbps
Width : 720 pixels
Height : 400 pixels
Display aspect ratio : 16:9
Frame rate : 23.976 fps
Color space : YUV
Chroma subsampling : 4:2:0
Bit depth : 8 bits
Scan type : Progressive
Compression mode : Lossy
Bits/(Pixel*Frame) : 0.302
Stream size : 1.33 GiB (91%)
Writing library : XviD 73

Audio
ID : 1
Format : AC-3
Format/Info : Audio Coding 3
Mode extension : CM (complete main)
Format settings, Endianness : Big
Codec ID : 2000
Duration : 1h 31mn
Bit rate mode : Constant
Bit rate : 192 Kbps
Channel(s) : 2 channels
Channel positions : Front: L R
Sampling rate : 48.0 KHz
Bit depth : 16 bits
Compression mode : Lossy
Stream size : 126 MiB (8%)
Alignment : Aligned on interleaves
Interleave, duration : 64 ms (1.53 video frames)
Interleave, preload duration : 192 ms
Title : RecentFilms


Внимание! AdBlock блокирует показ скриншотов, все вопросы к разработчикам )))

Трекер:  [ 19-Июн-2016 22:00 ]

  

Скачать .torrent

Размер .torrent файла 15 KB


Размер: 1.46 GB
Хэш (hash) релиза: bfabc0ad6307f6193742cc92e125502cfe89db45
Подписка на обновления:

Торренты, похожие на День матери Mothers and Daughters скачать торрент

Форум Название Автор Размер S L Добавлен
Зарубежные фильмы 2016-2019 (Новинки зарубежного кино) ·· День матери / Mothers and Daughters (Пол Даддридж, Найджел Леви) [2016, Драма, WEB-DLRip] Galfimbul 14905999361.39 GB 0 0 1466190707

22:11

17-Июн-16

Еще никто не оставлял запись к записи скачать торрент День матери Mothers and Daughters . Будь первым!

!Обратная связь