Скачать порно через торрент Girlfriend sucking dick in the shower UnionPeer.org бесплатно онлайн HD качество

Скачать новое порно 2015, 2014 новинки через торрент UnionPeer.org

Порно торрент бесплатно ЮнионПир.орг

Статистика раздачи
Размер:  115 MB   |    Зарегистрирован:  7 лет 7 месяцев   |    .torrent скачан:  770 раз   |   
Раздают:  1  
 

Скачать Girlfriend sucking dick in the shower [2016 г., big tits, sucking, blowjob, masturbation, oral, 720p] через torrent

 
 
Автор Сообщение

Galfimbul

avatar Galfimbul


Girlfriend sucking dick in the shower

[i]
Год производства: 2016 г.
Страна: other
Жанр: big tits, sucking, blowjob, masturbation, oral
Продолжительность: 00:10:00

Качество видео: CamRip
Формат видео: MPEG
Видео: AVC, 1280x720, 24,000 кадра/сек, 1505 Кбит/сек, 0.068
Аудио: AAC, 48,0 КГц, 2 канала, 96,0 Кбит/сек</span>
Общее
Полное имя : Girlfriend_sucking_dick_in_the_shower.mp4
Формат : MPEG-4
Профиль формата : Base Media
Идентификатор кодека : isom (isom/mp42)
Размер файла : 115 Мбайт
Продолжительность : 10 м.
Общий поток : 1607 Кбит/сек
Дата кодирования : UTC 2016-06-25 20:39:10
Дата пометки : UTC 2016-06-25 20:39:10
Программа кодирования : Lavf56.36.100

Видео
Идентификатор : 1
Формат : AVC
Формат/Информация : Advanced Video Codec
Профиль формата : [email protected]
Параметр CABAC формата : Да
Параметр ReFrames формата : 4 кадра
Идентификатор кодека : avc1
Идентификатор кодека/Информация : Advanced Video Coding
Продолжительность : 10 м.
Продолжительность оригинала : 10 м.
Битрейт : 1505 Кбит/сек
Ширина : 1280 пикселей
Высота : 720 пикселей
Соотношение сторон : 16:9
Режим частоты кадров : Переменный
Частота кадров : 24,000 кадра/сек
Минимальная частота кадров : 23,994 кадра/сек
Максимальная частота кадров : 24,000 кадра/сек
Цветовое пространство : YUV
Субдискретизация насыщенности : 4:2:0
Битовая глубина : 8 бит
Тип развёртки : Прогрессивная
Бит/(Пиксели*Кадры) : 0.068
Размер потока : 108 Мбайт (94%)
Размер потока оригинала : 108 Мбайт (94%)
Библиотека кодирования : x264 core 142 r2455 021c0dc
Настройки программы : cabac=1 / ref=3 / deblock=1:0:0 / analyse=0x3:0x113 / me=hex / subme=7 / psy=1 / psy_rd=1.00:0.00 / mixed_ref=1 / me_range=16 / chroma_me=1 / trellis=1 / 8x8dct=1 / cqm=0 / deadzone=21,11 / fast_pskip=1 / chroma_qp_offset=-2 / threads=1 / lookahead_threads=1 / sliced_threads=0 / nr=0 / decimate=1 / interlaced=0 / bluray_compat=0 / constrained_intra=0 / bframes=3 / b_pyramid=2 / b_adapt=1 / b_bias=0 / direct=1 / weightb=1 / open_gop=0 / weightp=2 / keyint=250 / keyint_min=24 / scenecut=40 / intra_refresh=0 / rc_lookahead=40 / rc=crf / mbtree=1 / crf=23.0 / qcomp=0.60 / qpmin=0 / qpmax=69 / qpstep=4 / vbv_maxrate=2048 / vbv_bufsize=1024 / crf_max=0.0 / nal_hrd=none / filler=0 / ip_ratio=1.40 / aq=1:1.00
Язык : English
Дата кодирования : UTC 2016-06-25 20:39:10
Дата пометки : UTC 2016-06-25 20:39:10
mdhd_Duration : 600306

Аудио
Идентификатор : 2
Формат : AAC
Формат/Информация : Advanced Audio Codec
Профиль формата : LC
Идентификатор кодека : 40
Продолжительность : 10 м.
Продолжительность оригинала : 10 м.
Вид битрейта : Постоянный
Битрейт : 96,0 Кбит/сек
Каналы : 2 канала
Расположение каналов : Front: L R
Частота : 48,0 КГц
Частота кадров : 46,875 кадров/сек (1024 spf)
Метод сжатия : С потерями
Размер потока : 6,87 Мбайт (6%)
Размер потока оригинала : 6,87 Мбайт (6%)
Язык : English
Дата кодирования : UTC 2016-06-25 20:39:10
Дата пометки : UTC 2016-06-25 20:39:10
mdhd_Duration : 600365


Внимание! AdBlock блокирует показ скриншотов, все вопросы к разработчикам )))
Трекер:  [ 26-Июн-2016 02:00 ]

  

Скачать .torrent

Размер .torrent файла 18 KB


Размер: 115 MB
Хэш (hash) релиза: abd49b1da8fdbb9a24c20bb599cc5c0c92117397

Еще никто не оставлял запись к записи скачать торрент Girlfriend sucking dick in the shower . Будь первым!

!Обратная связь