Скачать через торрент Приходи на меня посмотреть Nal boreowayo Фильм бесплатно в хорошем качестве torrent

Скачивайте на UnionPeer.org фильмы через торрент без регистрации. Новинки кино в хорошем качестве через торрент. На UnionPeer.org можно скачать через торрент фильмы 2014 и 2015 годов. Самые новые фильмы.

Скачать торрент Приходи на меня посмотреть Nal boreowayo бесплатно через .torrent фильм мультфильм сериал

Статистика раздачи
Размер:  1.45 GB   |    Зарегистрирован:  7 лет 7 месяцев   |    .torrent скачан:  171 раз   |   
Раздают:  1  
 

Скачать Приходи на меня посмотреть / Nal boreowayo (Ли Чхоль-ха) [2016, триллер, WEB-DLRip] через torrent

 
 
Автор Сообщение

Galfimbul

avatar Galfimbul


Приходи на меня посмотреть / Come To See Me / Come Watch Me / Nal boreowayo

Страна: Южная Корея
Производство: OAL Media Contents Group
Год выпуска: 2016
Жанр: триллер
Продолжительность: 01:31:01

Режиссер: Ли Чхоль-ха

В ролях: Кан Е-вон, Ли Сан-юн, Чхве Юн-со

Описание: В руки программного директора телевидения попадает дневник, в котором содержится запись о женщине, которую, якобы, насильно привезли и удерживали в психиатрической лечебнице. Больница сгорела год назад, в тот же день был убит начальник полиции. Выясняется, что по подозрению в убийстве арестовали ту самую женщину. История заинтересовала программного директора, он решает разобраться в ней и узнать правду...



Перевод: Любительский (двухголосый, закадровый) | den904 & DeadSno
Субтитры: нет
Качество: WEB-DLRip
Формат: АVI
Видео кодек: XviD
Аудио кодек: АС3
Видео: 720x304 (2.35:1), 23.976 fps, XviD ~2 079 kbps avg, 0.396 bit/pixel
Аудио: 48.0 kHz, AC3 Dolby Digital, 2/0 (L,R) ch, ~192 kbps

Дата премьеры (мир): 7 апреля 2016ВНИМАНИЕ! Присутствует
ненормативная лексика


</a>
General
Полное имя : И узрел я этот день.avi
Формат : AVI
Формат/Информация : Audio Video Interleave
Размер файла : 1,45 Гбайт
Продолжительность : 1 ч. 31 м.
Общий поток : 2281 Кбит/сек
Программа кодирования : VirtualDubMod 1.5.10.3 | (build 2550/release)
Библиотека кодирования : VirtualDubMod build 2550/release

Видео
Идентификатор : 0
Формат : MPEG-4 Visual
Параметр BVOP формата : 1
Параметр QPel формата : Нет
Параметр GMC формата : Без точки перехода
Параметр матрицы формата : Default (H.263)
Идентификатор кодека : XVID
Идентификатор кодека/Подсказка : XviD
Продолжительность : 1 ч. 31 м.
Битрейт : 2079 Кбит/сек
Ширина : 720 пикселей
Высота : 304 пикселя
Соотношение сторон : 2,35:1
Частота кадров : 23,976 (23976/1000) кадра/сек
Цветовое пространство : YUV
Субдискретизация насыщенности : 4:2:0
Битовая глубина : 8 бит
Тип развёртки : Прогрессивная
Метод сжатия : С потерями
Бит/(Пиксели*Кадры) : 0.396
Размер потока : 1,32 Гбайт (91%)
Библиотека кодирования : XviD 1.2.1 (UTC 2008-12-04)

Аудио
Идентификатор : 1
Формат : AC-3
Формат/Информация : Audio Coding 3
Расширение режима : CM (complete main)
Параметр Endianness формата : Big
Идентификатор кодека : 2000
Продолжительность : 1 ч. 31 м.
Вид битрейта : Постоянный
Битрейт : 192 Кбит/сек
Каналы : 2 канала
Расположение каналов : Front: L R
Частота : 48,0 КГц
Частота кадров : 31,250 кадров/сек (1536 spf)
Метод сжатия : С потерями
Размер потока : 125 Мбайт (8%)
Выравнивание : Разделение по промежуткам
Продолжительность промежутка : 42 мс. (1,00 видеокадр)
Время предзагрузки промежутка : 500 мс.


Внимание! AdBlock блокирует показ скриншотов, все вопросы к разработчикам )))
Трекер:  [ 28-Июн-2016 07:30 ]

  

Скачать .torrent

Размер .torrent файла 15 KB


Размер: 1.45 GB
Хэш (hash) релиза: 446e99a31df943085307d25de6cc2f1053e35e42
Подписка на обновления:

Еще никто не оставлял запись к записи скачать торрент Приходи на меня посмотреть Nal boreowayo . Будь первым!

!Обратная связь