Скачать через торрент Образцовый самец 2 Zoolander 2 Фильм бесплатно в хорошем качестве torrent

Скачивайте на UnionPeer.org фильмы через торрент без регистрации. Новинки кино в хорошем качестве через торрент. На UnionPeer.org можно скачать через торрент фильмы 2014 и 2015 годов. Самые новые фильмы.

Скачать торрент Образцовый самец 2 Zoolander 2 бесплатно через .torrent фильм мультфильм сериал

Статистика раздачи
Размер:  9.85 GB   |    Зарегистрирован:  7 лет 7 месяцев   |    .torrent скачан:  90 раз   |   
Раздают:  1  
 

Скачать Образцовый самец 2 / Zoolander 2 (Бен Стиллер / Ben Stiller) [2016, США, комедия, BDRip 1080p] Dub (Blu-ray CEE) + Sub Rus, Eng + Original Eng через torrent

 
 
Автор Сообщение

Galfimbul

avatar Galfimbul



Образцовый самец 2 / Zoolander 2
Страна: США
Жанр: комедия
Год выпуска: 2016
Продолжительность: 01:41:47
Перевод: Профессиональный (дублированный) Blu-ray CEE
Cубтитры: русские, английские
Оригинальная аудиодорожка: английский
Режиссер: Бен Стиллер / Ben Stiller

В ролях: Бен Стиллер (Derek), Оуэн Уилсон (Hansel), Пенелопа Крус (Valentina Valencia), Кристен Уиг (Alexanya Atoz), Уилл Феррелл (Jacobim Mugatu), Бенедикт Камбербэтч (All), Джастин Бибер (Justin Bieber), Джон Дэйли (Agent Filippo), Кэти Курик (Katie Couric), Эми Стиллер (Mom Tourist), Шарлотта Таунсенд (Girl Tourist), Кристин Тейлор (Matilda)
Описание: Триумфальное возвращение на подиумы когда-то топовых, а ныне слегка потрепанных мужчин-моделей Дерека Зуландера и Ханселя в комедии о мире, где для обретения всеобщей популярности достаточно одного селфи.
Сэмпл
Тип релиза: BDRip 1080p
Контейнер: MKV

Видео: MPEG-4 AVC Video 11700 kbps 1920 x 804 p / 23,976 fps / High Profile 4.1
Аудио: Russian / Dolby Digital Audio / 5.1 / 48 kHz / 640 kbps
Аудио 2: English / DTS Audio 5.1 / 48 kHz / 1509 kbps
Формат субтитров: softsub (SRT)
Source: Zoolander 2 2016 1080p Blu-ray AVC DTS-HD MA 7.1-MTeam-----------------------------------------------------------------------------------------------------------------------------------------------------Release name: Zoolander.2.2016.1080p.BluRay.DTS.x264-HiFiSize: 9.39 GB-----------------------------------------------------------------------------------------------------------------------------------------------------Video: 11.7 Mbps / 1920 x 804 / 23.976 fpsAudio: DTS / 5.1 Ch / 1509 KbpsSubtitles: English, English SDH, FrenchChapters: NumberedCommentary: None-----------------------------------------------------------------------------------------------------------------------------------------------------

[b]Source______________Encode______________Scene
GeneralUnique ID : 237025292862369906241742115778317151660 (0xB25169316727EADB9102385A0D326DAC)Complete name : Z:\На хранении\Образцовый самец 2 (2016. Zoolander 2) 1080p.mkvFormat : MatroskaFormat version : Version 4 / Version 2File size : 9.85 GiBDuration : 1h 41mnOverall bit rate : 13.9 MbpsMovie name : Release for RuTrackerEncoded date : UTC 2016-06-30 19:27:29Writing application : mkvmerge v9.0.1 ('Obstacles') 64bitWriting library : libebml v1.3.3 + libmatroska v1.4.4Cover : YesAttachments : cover.jpg

VideoID : 1Format : AVCFormat/Info : Advanced Video CodecFormat profile : [email protected] settings, CABAC : YesFormat settings, ReFrames : 5 framesCodec ID : V_MPEG4/ISO/AVCDuration : 1h 41mnBit rate : 11.7 MbpsWidth : 1 920 pixelsHeight : 804 pixelsDisplay aspect ratio : 2.40:1Frame rate mode : ConstantFrame rate : 23.976 (24000/1001) fpsColor space : YUVChroma subsampling : 4:2:0Bit depth : 8 bitsScan type : ProgressiveBits/(Pixel*Frame) : 0.316Stream size : 8.32 GiB (84%)Title : Zoolander.2.2016.1080p.BluRay.DTS.x264-HiFiWriting library : x264 core 148 r2692 64f4e24Encoding settings : cabac=1 / ref=5 / deblock=1:-3:-3 / analyse=0x3:0x133 / me=umh / subme=11 / psy=1 / psy_rd=1.05:0.00 / mixed_ref=1 / me_range=48 / chroma_me=1 / trellis=2 / 8x8dct=1 / cqm=0 / deadzone=21,11 / fast_pskip=0 / chroma_qp_offset=-2 / threads=6 / lookahead_threads=1 / sliced_threads=0 / nr=0 / decimate=0 / interlaced=0 / bluray_compat=0 / constrained_intra=0 / bframes=12 / b_pyramid=2 / b_adapt=2 / b_bias=0 / direct=3 / weightb=1 / open_gop=0 / weightp=2 / keyint=250 / keyint_min=23 / scenecut=40 / intra_refresh=0 / rc_lookahead=60 / rc=crf / mbtree=0 / crf=15.6 / qcomp=0.65 / qpmin=0 / qpmax=69 / qpstep=4 / vbv_maxrate=50000 / vbv_bufsize=625000 / crf_max=0.0 / nal_hrd=none / filler=0 / ip_ratio=1.40 / pb_ratio=1.30 / aq=3:0.60Language : EnglishDefault : YesForced : No

Audio #1ID : 2Format : AC-3Format/Info : Audio Coding 3Mode extension : CM (complete main)Format settings, Endianness : BigCodec ID : A_AC3Duration : 1h 41mnBit rate mode : ConstantBit rate : 640 KbpsChannel(s) : 6 channelsChannel positions : Front: L C R, Side: L R, LFESampling rate : 48.0 KHzFrame rate : 31.250 fps (1536 spf)Compression mode : LossyStream size : 466 MiB (5%)Title : Дубляж [Blu-ray CEE]Language : RussianDefault : YesForced : No

Audio #2ID : 3Format : DTSFormat/Info : Digital Theater SystemsMode : 16Format settings, Endianness : BigCodec ID : A_DTSDuration : 1h 41mnBit rate mode : ConstantBit rate : 1 509 KbpsChannel(s) : 6 channelsChannel positions : Front: L C R, Side: L R, LFESampling rate : 48.0 KHzFrame rate : 93.750 fps (512 spf)Bit depth : 24 bitsCompression mode : LossyStream size : 1.07 GiB (11%)Language : EnglishDefault : NoForced : No

Text #1ID : 4Format : UTF-8Codec ID : S_TEXT/UTF8Codec ID/Info : UTF-8 Plain TextDuration : 1h 34mnBit rate : 1 bpsCount of elements : 30Stream size : 1.21 KiB (0%)Title : forcedLanguage : RussianDefault : YesForced : No

Text #2ID : 5Format : UTF-8Codec ID : S_TEXT/UTF8Codec ID/Info : UTF-8 Plain TextDuration : 1h 34mnBit rate : 104 bpsCount of elements : 1292Stream size : 72.5 KiB (0%)Language : RussianDefault : NoForced : No

Text #3ID : 6Format : UTF-8Codec ID : S_TEXT/UTF8Codec ID/Info : UTF-8 Plain TextDuration : 1h 33mnBit rate : 64 bpsCount of elements : 1383Stream size : 44.2 KiB (0%)Language : EnglishDefault : NoForced : No

Text #4ID : 7Format : UTF-8Codec ID : S_TEXT/UTF8Codec ID/Info : UTF-8 Plain TextDuration : 1h 34mnBit rate : 68 bpsCount of elements : 1686Stream size : 47.9 KiB (0%)Title : SDHLanguage : EnglishDefault : NoForced : No

Menu00:00:00.000 : en:Chapter 100:07:40.877 : en:Chapter 200:12:25.370 : en:Chapter 300:15:26.217 : en:Chapter 400:22:49.868 : en:Chapter 500:28:41.136 : en:Chapter 600:31:07.074 : en:Chapter 700:36:42.617 : en:Chapter 800:42:54.614 : en:Chapter 900:48:54.974 : en:Chapter 1000:56:57.039 : en:Chapter 1101:07:00.225 : en:Chapter 1201:14:33.010 : en:Chapter 1301:18:17.067 : en:Chapter 1401:23:42.226 : en:Chapter 1501:33:15.548 : en:Chapter 16


Внимание! AdBlock блокирует показ скриншотов, все вопросы к разработчикам )))
Трекер:  [ 30-Июн-2016 22:00 ]

  

Скачать .torrent

Размер .torrent файла 49 KB


Размер: 9.85 GB
Хэш (hash) релиза: 1ad0be3ddbbb144ce91e32a53c3bb96aee2583cc
Подписка на обновления:

Торренты, похожие на Образцовый самец 2 Zoolander 2 скачать торрент

Форум Название Автор Размер S L Добавлен
Зарубежные фильмы 2016-2019 (Новинки зарубежного кино) ·%· Образцовый самец 2 / Zoolander 2 (2016) BDRip-AVC от HELLYWOOD | Лицензия Galfimbul 23428639342.18 GB 0 0 1536657632

12:20

11-Сен-18

Зарубежные фильмы до 2016 ·· Образцовый самец 2 / Zoolander 2 (Бен Стиллер / Ben Stiller) [2016, США, комедия, DVD9] Dub + Original Eng Galfimbul 65992171526.15 GB 0 0 1521298963

18:02

17-Мар-18

Зарубежные фильмы 2016-2019 (Новинки зарубежного кино) ·· Образцовый самец 2 / Zoolander 2 (Бен Стиллер / Ben Stiller) [2016, США, комедия, BDRip] Dub + Sub Rus Galfimbul 15682457601.46 GB 0 0 1473488605

09:23

10-Сен-16

Трейлеры и дополнительные материалы ·· Образцовый Самец 2 / Zoolander 2 (Бен Стиллер / Ben Stiller) [2016, Комедия, BDRip 720p] дополнительные материалы Galfimbul 844460239805 MB 0 0 1468010862

23:47

8-Июл-16

Зарубежные фильмы до 2016 ·· Образцовый самец 2 / Zoolander 2 (Бен Стиллер / Ben Stiller) [2016, США, комедия, BDRip 720p] Dub (Blu-ray CEE) + Sub Rus, Eng + Original Eng Galfimbul 49058541244.57 GB 0 0 1467317641

23:14

30-Июн-16

Зарубежные фильмы до 2016 ·· Образцовый самец 2 / Zoolander 2 (Бен Стиллер / Ben Stiller) [2016, США, комедия, Blu-ray disc 1080p] [CEE] Dub + Sub Rus, Eng + Original Eng Galfimbul 3916549191136.48 GB 0 0 1467313023

21:57

30-Июн-16

Зарубежные фильмы 2016-2019 (Новинки зарубежного кино) ·· Образцовый самец 2 / Zoolander 2 (Бен Стиллер / Ben Stiller) [2016, США, комедия, BDRip 720p] Лицензия Galfimbul 49055492684.57 GB 0 0 1467277829

12:10

30-Июн-16

Зарубежные фильмы 2016-2019 (Новинки зарубежного кино) ·· Образцовый самец 2 / Zoolander 2 (Бен Стиллер / Ben Stiller) [2016, США, комедия, BDRip 1080p] Лицензия Galfimbul 105745037269.85 GB 0 0 1467277807

12:10

30-Июн-16

Зарубежные фильмы 2016-2019 (Новинки зарубежного кино) ·· Образцовый самец 2 / Zoolander 2 (Бен Стиллер / Ben Stiller) [2016, США, комедия, BDRip] Dub (iTunes) + Sub Rus, Eng + Original Eng Galfimbul 23468593422.19 GB 0 0 1466378764

02:26

20-Июн-16

Зарубежные фильмы до 2016 ·· Образцовый самец 2 / Zoolander 2 (Бен Стиллер / Ben Stiller) [2016, США, комедия, BDRip 720p] Dub (iTunes) + Sub Rus, Eng + Original Eng Galfimbul 47103982624.39 GB 0 0 1465641271

13:34

11-Июн-16

Зарубежные фильмы до 2016 ·· Образцовый самец 2 / Zoolander 2 (Бен Стиллер / Ben Stiller) [2016, США, комедия, BDRip 1080p] Dub (iTunes) + Sub Rus, Eng + Original Eng Galfimbul 103793625729.67 GB 0 0 1465641249

13:34

11-Июн-16

Зарубежные фильмы 2016-2019 (Новинки зарубежного кино) ·· Образцовый самец 2 / Zoolander 2 (Бен Стиллер / Ben Stiller) [2016, США, Комедия, HDRip] iTunes Galfimbul 22002002652.05 GB 0 0 1465379047

12:44

8-Июн-16

Зарубежные фильмы 2016-2019 (Новинки зарубежного кино) ·· Образцовый самец 2 / Zoolander 2 (Бен Стиллер / Ben Stiller) [2016, США, комедия, HDRip] Dub (iTunes) Galfimbul 15648542721.46 GB 0 0 1465343978

02:59

8-Июн-16

Зарубежные фильмы 2016-2019 (Новинки зарубежного кино) ·· Образцовый самец 2 / Zoolander 2 (Бен Стиллер / Ben Stiller) [2016, США, Комедия, HDRip] Dub (Line) Galfimbul 15641395201.46 GB 0 0 1463047018

12:56

12-Май-16

Зарубежные фильмы 2016-2019 (Новинки зарубежного кино) ·· Образцовый самец 2 / Zoolander 2 (Бен Стиллер / Ben Stiller) [2016, США, Комедия, BDRip 1080p] Line Galfimbul 85081569557.92 GB 0 0 1462966865

14:41

11-Май-16

Зарубежные фильмы 2016-2019 (Новинки зарубежного кино) ·· Образцовый самец 2 / Zoolander 2 (Бен Стиллер / Ben Stiller) [2016, США, Комедия, BDRip 720p] D | Line Galfimbul 43225565844.03 GB 0 0 1462964974

14:09

11-Май-16

Зарубежные фильмы 2016-2019 (Новинки зарубежного кино) ·· Образцовый самец 2 / Zoolander 2 (Бен Стиллер / Ben Stiller) [2016, США, Комедия, HDRip] Line Galfimbul 15644016641.46 GB 0 0 1462943643

08:14

11-Май-16

Зарубежные фильмы 2016-2019 (Новинки зарубежного кино) ·· Образцовый самец 2 / Zoolander 2 (Бен Стиллер / Ben Stiller) [2016, США, Комедия, WEB-DL 720p] Line Galfimbul 32477146213.02 GB 0 0 1462621338

14:42

7-Май-16

Зарубежные фильмы 2016-2019 (Новинки зарубежного кино) ·· Образцовый самец 2 / Zoolander 2 (Бен Стиллер / Ben Stiller) [2016, США, Комедия, WEB-DLRip] Line Galfimbul 15643934721.46 GB 0 0 1462621332

14:42

7-Май-16

Еще никто не оставлял запись к записи скачать торрент Образцовый самец 2 Zoolander 2 . Будь первым!

!Обратная связь