Скачать через торрент До встречи с тобой Me Before You Фильм бесплатно в хорошем качестве torrent

Скачивайте на UnionPeer.org фильмы через торрент без регистрации. Новинки кино в хорошем качестве через торрент. На UnionPeer.org можно скачать через торрент фильмы 2014 и 2015 годов. Самые новые фильмы.

Скачать торрент До встречи с тобой Me Before You бесплатно через .torrent фильм мультфильм сериал

Статистика раздачи
Размер:  1.37 GB   |    Зарегистрирован:  7 лет 7 месяцев   |    .torrent скачан:  1266 раз   |   
Раздают:  1  
 

Скачать До встречи с тобой / Me Before You (Теа Шэррок) [2016, драма, WEBRip] через torrent

 
 
Автор Сообщение

Galfimbul

avatar Galfimbul


До встречи с тобой / Me Before You

Страна: Великобритания
Производство: Metro-Goldwyn-Mayer (MGM), New Line Cinema
Год выпуска: 2016
Жанр: драма
Продолжительность: 01:49:41

Режиссер: Теа Шэррок
Автор сценария: Джоджо Мойес

В ролях: Сэм Клафлин, Эмилия Кларк, Ванесса Кирби, Эйлин Данвуди, Пабло Рэйбоулд, Гэбриэлль Дауни, Саманта Спиро, Брендан Койл

Описание: Лу Кларк знает, сколько шагов от автобусной остановки до ее дома. Она знает, что ей очень нравится работа в кафе и что, скорее всего, она не любит своего бойфренда Патрика. Но Лу не знает, что вот-вот потеряет свою работу и что в ближайшем будущем ей понадобятся все силы, чтобы преодолеть свалившиеся на нее проблемы. Уилл Трейнор знает, что сбивший его мотоциклист отнял у него желание жить. И он точно знает, что надо сделать, чтобы положить конец всему этому. Но он не знает, что Лу скоро ворвется в его мир буйством красок. И они оба не знают, что навсегда изменят жизнь друг друга...



Перевод: Любительский (многоголосый) | СПД
Субтитры: корейские (вшитые)
Качество: WEBRip
Формат: АVI
Видео кодек: XviD
Аудио кодек: АС3
Видео: 720x304 (2.35:1), 23.976 fps, XviD ~1 774 kbps avg
Аудио: 48 kHz, AC3 Dolby Digital, 2/0 (L,R) ch, ~384 kbps

Бюджет: $20 000 000
Дата премьеры (мир): 2 июня 2016
Дата премьеры (РФ): 7 июля 2016, «Каро-Премьер»

ПРИМЕЧАНИЕ: ПРИСУТСТВУЕТ РЕКЛАМА!
General
Format : AVI
Format/Info : Audio Video Interleave
Overall bit rate : 2 168 Kbps
Movie name : MoreFilms
Writing application : VirtualDubMod 1.5.10.3 | (build 2550/release)
Writing library : VirtualDubMod build 2550/release

Video
ID : 0
Format : MPEG-4 Visual
Format profile : Advanced Simple@L5
Format settings, BVOP : 2
Format settings, QPel : No
Format settings, GMC : No warppoints
Format settings, Matrix : Custom
Codec ID : XVID
Codec ID/Hint : XviD
Bit rate : 1 774 Kbps
Width : 720 pixels
Height : 304 pixels
Display aspect ratio : 2.35:1
Frame rate : 23.976 fps
Color space : YUV
Chroma subsampling : 4:2:0
Bit depth : 8 bits
Scan type : Progressive
Compression mode : Lossy
Bits/(Pixel*Frame) : 0.338
Stream size : 16.2 MiB (82%)
Writing library : XviD 1.2.1 (UTC 2008-12-04)

Audio
ID : 1
Format : AC-3
Format/Info : Audio Coding 3
Mode extension : CM (complete main)
Format settings, Endianness : Big
Codec ID : 2000
Bit rate mode : Constant
Bit rate : 384 Kbps
Channel(s) : 2 channels
Channel positions : Front: L R
Sampling rate : 48.0 KHz
Compression mode : Lossy
Stream size : 3.50 MiB (18%)
Alignment : Split accross interleaves
Interleave, duration : 42 ms (1.01 video frame)
Interleave, preload duration : 500 ms


Внимание! AdBlock блокирует показ скриншотов, все вопросы к разработчикам )))
Трекер:  [ 08-Июл-2016 09:30 ]

  

Скачать .torrent

Размер .torrent файла 14 KB


Размер: 1.37 GB
Хэш (hash) релиза: 179942672517bb07bc04496de341a0a6cb752b66
Подписка на обновления:

Торренты, похожие на До встречи с тобой Me Before You скачать торрент

Форум Название Автор Размер S L Добавлен
Зарубежные фильмы 2016-2019 (Новинки зарубежного кино) ·· До встречи с тобой / Me Before You (Теа Шэррок) [2016, драма, WEBRip 1080p] Звук с TS Galfimbul 47580220254.43 GB 0 0 1468304062

09:14

12-Июл-16

Зарубежные фильмы 2016-2019 (Новинки зарубежного кино) ·· До встречи с тобой / Me Before You (Теа Шэррок) [2016, драма, WEBRip] Звук с TS Galfimbul 14676561921.37 GB 0 0 1468302243

08:44

12-Июл-16

Зарубежные фильмы 2016-2019 (Новинки зарубежного кино) ·%· До встречи с тобой / Me Before You (2016) BDRip-HEVC 1080p от M@kSIMus & NoMaD | Лицензия Galfimbul 58139615885.41 GB 0 0 1557104422

04:00

6-Май-19

Зарубежные фильмы до 2016 ·· До встречи с тобой / Me Before You (Теа Шэррок / Thea Sharrock) [2016, Великобритания, США, Драма, мелодрама, DVD9] R5 Dub + Sub Rus + Original Eng Galfimbul 64147333125.97 GB 0 0 1528228913

23:01

5-Июн-18

Зарубежные фильмы до 2016 ·· До встречи с тобой / Me Before You (Теа Шэррок / Thea Sharrock) [2016, США, Великобритания, драма, BDRip 720p] Dub (Blu-ray CEE) + Ukr Dub + Original (Eng) + Sub (Rus, Eng) Galfimbul 69004996406.43 GB 0 0 1476130215

23:10

10-Окт-16

Зарубежные фильмы до 2016 ·· До встречи с тобой / Me Before You (Теа Шэррок / Thea Sharrock) [2016, США, Великобритания, драма, BDRip 1080p] Dub (Blu-ray CEE) + Ukr Dub + Original (Eng) + Sub (Rus, Eng) Galfimbul 1491475743813.89 GB 0 0 1476130162

23:09

10-Окт-16

Зарубежные фильмы до 2016 ·· До встречи с тобой / Me Before You (Теа Шэррок / Thea Sharrock) [2016, США, Великобритания, драма, Blu-ray disc 1080p] [CEE] Dub + Sub Rus, Eng + Original Eng Galfimbul 3322618623230.94 GB 0 0 1475429001

20:23

2-Окт-16

Трейлеры и дополнительные материалы ·· До встречи с тобой / Me Before You (Теа Шэррок / Thea Sharrock) [2016, Фрама, BDRip 720p] дополнительные материалы Galfimbul 447050432426 MB 0 0 1475365795

02:49

2-Окт-16

Зарубежные фильмы 2016-2019 (Новинки зарубежного кино) ·· До встречи с тобой / Me Before You (Теа Шэррок / Thea Sharrock) [2016, США, Великобритания, драма, BDRip-AVC] Dub Galfimbul 15705656101.46 GB 0 0 1473242078

12:54

7-Сен-16

Зарубежные фильмы 2016-2019 (Новинки зарубежного кино) ·· До встречи с тобой / Me Before You (Теа Шэррок / Thea Sharrock) [2016, США, Великобритания, драма, BDRip-AVC] Dub + Original + Sub (rus, eng) Galfimbul 30210551432.81 GB 0 0 1473242075

12:54

7-Сен-16

Зарубежные фильмы 2016-2019 (Новинки зарубежного кино) ·· До встречи с тобой / Me Before You (Теа Шэррок / Thea Sharrock) [2016, США, Великобритания, драма, BDRip] Dub Galfimbul 781318144745 MB 0 0 1473242071

12:54

7-Сен-16

Зарубежные фильмы 2016-2019 (Новинки зарубежного кино) ·· До встречи с тобой / Me Before You (Теа Шэррок / Thea Sharrock) [2016, США, Великобритания, драма, BDRip] Dub + Original + Sub (rus) Galfimbul 22842407812.13 GB 0 0 1473242067

12:54

7-Сен-16

Зарубежные фильмы 2016-2019 (Новинки зарубежного кино) ·· До встречи с тобой / Me Before You (Теа Шэррок / Thea Sharrock) [2016, США, Великобритания, драма, BDRip] Dub Galfimbul 15734333441.47 GB 0 0 1473240376

12:26

7-Сен-16

Зарубежные фильмы 2016-2019 (Новинки зарубежного кино) ·· До встречи с тобой / Me Before You (Теа Шэррок) [2016, драма, BDRip 720p] Line Galfimbul 51576888984.8 GB 0 0 1471244996

10:09

15-Авг-16

Зарубежные фильмы 2016-2019 (Новинки зарубежного кино) ·· До встречи с тобой / Me Before You (Теа Шэррок) [2016, драма, BDRip 1080p] Line Galfimbul 97964465629.12 GB 0 0 1471244991

10:09

15-Авг-16

Зарубежные фильмы 2016-2019 (Новинки зарубежного кино) ·· До встречи с тобой / Me Before You (Теа Шэррок) [2016, драма, HDRip] Line Galfimbul 15650222081.46 GB 0 0 1471244986

10:09

15-Авг-16

Зарубежные фильмы 2016-2019 (Новинки зарубежного кино) ·· До встречи с тобой / Me Before You (Теа Шэррок) [2016, драма, WEBRip 1080p] Galfimbul 42407262523.95 GB 0 0 1467960278

09:44

8-Июл-16

Еще никто не оставлял запись к записи скачать торрент До встречи с тобой Me Before You . Будь первым!

!Обратная связь