Скачать через торрент Лондон 1920 1920 London Фильм бесплатно в хорошем качестве torrent

Скачивайте на UnionPeer.org фильмы через торрент без регистрации. Новинки кино в хорошем качестве через торрент. На UnionPeer.org можно скачать через торрент фильмы 2014 и 2015 годов. Самые новые фильмы.

Скачать торрент Лондон 1920 1920 London бесплатно через .torrent фильм мультфильм сериал

Статистика раздачи
Размер:  2.37 GB   |    Зарегистрирован:  7 лет 7 месяцев   |    .torrent скачан:  131 раз   |   
Раздают:  1  
 

Скачать Лондон 1920 / 1920 London (Дхармендра Суреш Десаи) [2016, Ужасы, DVDRip] через torrent

 
 
Автор Сообщение

Galfimbul

avatar Galfimbul


Лондон 1920 /1920 London

Год выхода: 2016
Жанр: Ужасы
Режиссер: Дхармендра Суреш Десаи
В ролях: Мира Чопра, Шарман Джоши, Вишал Карвал ...

О фильме:
В молодого мужа прекрасной Шиванги вселяется нечто потустороннее. Девушка готова пойти на что угодно, чтобы спасти любимого. Даже прибегнуть к помощи экзорциста.



Страна: Индия
Продолжительность: 01:58:36
Перевод: Любительский двухголосый [Honey&Haseena / Озвучка: Давид Петросян и Маргарита Сахно]

Файл
Кодек: XviD
Качество: DVDRip
Видео: MPEG4, XviD, 720x304 (2.35:1), 23.976 fps, 1 952 Kbps (0.372 bit/pixel)
Звук:
Аудио #1: AC-3, 48.0 KHz, 6 ch, 448 Kbps, CBR |Rus (Honey&Haseena)
Аудио #2: AC-3, 48.0 KHz, 6 ch, 448 Kbps, CBR |Hindi
Общее
Полное имя : 1920.London.2016.DVDRip.Rus.Hin.avi
Формат : AVI
Формат/Информация : Audio Video Interleave
Профиль формата : OpenDML
Размер файла : 2,37 Гбайт
Продолжительность : 1 ч. 58 м.
Общий поток : 2865 Кбит/сек
Программа кодирования : VirtualDubMod 1.5.10.3 (build 2550/release)
Библиотека кодирования : VirtualDubMod build 2550/release

Видео
Идентификатор : 0
Формат : MPEG-4 Visual
Профиль формата : Advanced Simple@L5
Параметр BVOP формата : Да
Параметр QPel формата : Нет
Параметр GMC формата : Без точки перехода
Параметр матрицы формата : Default (MPEG)
Идентификатор кодека : XVID
Идентификатор кодека/Подсказка : XviD
Продолжительность : 1 ч. 58 м.
Битрейт : 1952 Кбит/сек
Ширина : 720 пикселей
Высота : 304 пикселя
Соотношение сторон : 2,35:1
Частота кадров : 23,976 (23976/1000) кадра/сек
Цветовое пространство : YUV
Субдискретизация насыщенности : 4:2:0
Битовая глубина : 8 бит
Тип развёртки : Прогрессивная
Метод сжатия : С потерями
Бит/(Пиксели*Кадры) : 0.372
Размер потока : 1,62 Гбайт (68%)
Библиотека кодирования : XviD 73

Аудио #1
Идентификатор : 1
Формат : AC-3
Формат/Информация : Audio Coding 3
Расширение режима : CM (complete main)
Параметр Endianness формата : Big
Идентификатор кодека : 2000
Продолжительность : 1 ч. 58 м.
Вид битрейта : Постоянный
Битрейт : 448 Кбит/сек
Каналы : 6 каналов
Расположение каналов : Front: L C R, Side: L R, LFE
Частота : 48,0 КГц
Частота кадров : 31,250 кадров/сек (1536 spf)
Метод сжатия : С потерями
Размер потока : 380 Мбайт (16%)
Выравнивание : Разделение по промежуткам
Продолжительность промежутка : 42 мс. (1,00 видеокадр)
Время предзагрузки промежутка : 500 мс.

Аудио #2
Идентификатор : 2
Формат : AC-3
Формат/Информация : Audio Coding 3
Расширение режима : CM (complete main)
Параметр Endianness формата : Big
Идентификатор кодека : 2000
Продолжительность : 1 ч. 58 м.
Вид битрейта : Постоянный
Битрейт : 448 Кбит/сек
Каналы : 6 каналов
Расположение каналов : Front: L C R, Side: L R, LFE
Частота : 48,0 КГц
Частота кадров : 31,250 кадров/сек (1536 spf)
Метод сжатия : С потерями
Размер потока : 380 Мбайт (16%)
Выравнивание : Разделение по промежуткам
Продолжительность промежутка : 42 мс. (1,00 видеокадр)
Время предзагрузки промежутка : 500 мс.


Внимание! AdBlock блокирует показ скриншотов, все вопросы к разработчикам )))
Трекер:  [ 10-Июл-2016 19:30 ]

  

Скачать .torrent

Размер .torrent файла 12 KB


Размер: 2.37 GB
Хэш (hash) релиза: 28b54e4faf6b835acb7f4d7ee07222ae19f2e71c
Подписка на обновления:

Торренты, похожие на Лондон 1920 1920 London скачать торрент

Форум Название Автор Размер S L Добавлен
Зарубежные фильмы 2016-2019 (Новинки зарубежного кино) ·· Лондон 1920 / 1920 London (Дхармендра Суреш Десаи) [2016, Ужасы, WEBDL 720p] Galfimbul 40213274983.75 GB 0 0 1468169046

19:44

10-Июл-16

Еще никто не оставлял запись к записи скачать торрент Лондон 1920 1920 London . Будь первым!

!Обратная связь