Скачать через торрент Ночная смена The Night Shift Фильм бесплатно в хорошем качестве torrent

Скачивайте на UnionPeer.org фильмы через торрент без регистрации. Новинки кино в хорошем качестве через торрент. На UnionPeer.org можно скачать через торрент фильмы 2014 и 2015 годов. Самые новые фильмы.

Скачать торрент Ночная смена The Night Shift бесплатно через .torrent фильм мультфильм сериал

Статистика раздачи
Размер:  11.03 GB   |    Зарегистрирован:  3 года 4 месяца   |    .torrent скачан:  42 раза   |   
Раздают:  1  
 

Скачать Ночная смена / The Night Shift / Сезон: 1 / Серии: 1-8 из 8 (Марта Кулидж, Кевин Даулинг, Пьер Морель) [2014, драма, WEB-DL 720p] MVO + Original + Eng(Sub) через torrent

 
загрузка...
 
Автор Сообщение

Galfimbul

avatar Galfimbul


Ночная смена / The Night Shift

Год выпуска: 2014
Страна: США
Жанр: драма
Продолжительность: ~42 мин.

Перевод: Профессиональный (многоголосый закадровый) /IVI/

Запись и сведение: Beer kolesik Drinkers

Режиссёр: Марта Кулидж, Кевин Даулинг, Пьер Морель

В ролях: Оуэн Мэкен, Фредди Родригес, Джилл Флинт, Кен Люн, Роберт Бэйли мл., Брендан Фер, Джинэнн Гуссен, ДжейАр Лемон и др.

Описание: Бывшие армейские врачи работают в отделении экстренной помощи города Сан Антонио. На спасение пациентов порой отпущены считанные секунды, и за это время докторам предстоит применить все свои полученные на поле боя навыки, чтобы сразиться с последним врагом - смертью.

Доп. информация: Особая благодарность Wareznik

Ссылка на предыдущие и альтернативные раздачи: <a href="tracker.php?f=189,2366&nm=The%20Night%20Shift" class="postLink">...189,2366&nm=The%20Night%20Shift</a>

Сэмпл: http://sendfile.su/1251036

Качество: WEB-DL 720p
Контейнер: MKV

Видео: H.264, 1280x718 (16:9), 23.976 fps, 4113 kbps, 0.187 bit/pixel
Аудио Rus: Russian, AC3, 48 kHz, 2 ch, 192 kbps
Аудио Eng: English, AC3, 48 kHz, 6 ch, 384 kbps
Субтитры: softsub Английские
01 - Pilot
02 - Second Chances
03 - Hog Wild
04 - Grace Under Fire
05 - Storm Watch
06 - Coming Home
07 - Blood Brothers
08 - Save Me
General
Unique ID : 181808462678580842597052623101004953392 (0x88C7094720A0C5A5979AA880C4D53730)
Complete name : D:\Раздачи\The.Night.Shift.S01.720p.WEB-DL.DD5.1.h.264-BkD\The.Night.Shift.S01E01.Pilot.720p.WEB-DL.DD5.1.h.264-BkD.mkv
Format : Matroska
Format version : Version 4 / Version 2
File size : 1.44 GiB
Duration : 43mn 8s
Overall bit rate : 4 784 Kbps
Movie name : BkD
Encoded date : UTC 2016-07-18 09:59:51
Writing application : mkvmerge v8.2.0 ('World of Adventure') 32bit
Writing library : libebml v1.3.1 + libmatroska v1.4.2
DURATION : 00:42:33.884000000
NUMBER_OF_FRAMES : 1056
NUMBER_OF_BYTES : 46845
_STATISTICS_WRITING_APP : mkvmerge v8.2.0 ('World of Adventure') 32bit
_STATISTICS_WRITING_DATE_UT : 2016-07-18 09:59:51
_STATISTICS_TAGS : BPS DURATION NUMBER_OF_FRAMES NUMBER_OF_BYTES

Video
ID : 1
Format : AVC
Format/Info : Advanced Video Codec
Format profile : High@L3.1
Format settings, CABAC : No
Format settings, ReFrames : 2 frames
Format settings, GOP : N=1
Codec ID : V_MPEG4/ISO/AVC
Duration : 43mn 8s
Bit rate : 4 113 Kbps
Width : 1 280 pixels
Height : 718 pixels
Display aspect ratio : 16:9
Frame rate mode : Constant
Frame rate : 23.976 fps
Color space : YUV
Chroma subsampling : 4:2:0
Bit depth : 8 bits
Scan type : Progressive
Bits/(Pixel*Frame) : 0.187
Stream size : 1.24 GiB (86%)
Language : English
Default : Yes
Forced : No
Color range : Limited
Color primaries : BT.709
Transfer characteristics : BT.709
Matrix coefficients : BT.709

Audio #1
ID : 2
Format : AC-3
Format/Info : Audio Coding 3
Mode extension : CM (complete main)
Format settings, Endianness : Big
Codec ID : A_AC3
Duration : 43mn 8s
Bit rate mode : Constant
Bit rate : 192 Kbps
Channel(s) : 2 channels
Channel positions : Front: L R
Sampling rate : 48.0 KHz
Compression mode : Lossy
Stream size : 59.2 MiB (4%)
Title : IVI
Language : Russian
Default : Yes
Forced : No

Audio #2
ID : 3
Format : AC-3
Format/Info : Audio Coding 3
Mode extension : CM (complete main)
Format settings, Endianness : Big
Codec ID : A_AC3
Duration : 43mn 8s
Bit rate mode : Constant
Bit rate : 384 Kbps
Channel(s) : 6 channels
Channel positions : Front: L C R, Side: L R, LFE
Sampling rate : 48.0 KHz
Compression mode : Lossy
Stream size : 118 MiB (8%)
Language : English
Default : No
Forced : No

Text
ID : 4
Format : UTF-8
Codec ID : S_TEXT/UTF8
Codec ID/Info : UTF-8 Plain Text
Language : English
Default : No
Forced : No


Трекер:  [ 18-Июл-2016 13:00 ]

  

Скачать .torrent

Размер .torrent файла 29 KB


Размер: 11.03 GB
Хэш (hash) релиза: 8f931b4fadef3dcbe370108def5641d55a4cff3a
Подписка на обновления:

Торренты, похожие на Ночная смена The Night Shift скачать торрент

Форум Название Автор Размер S L Добавлен
Зарубежные сериалы ·· Ночная смена / The Night Shift / Сезон: 1 / Серии: 1-8 из 8 (David Boyd / Дэвид Бойд...) [2014, драма, медицина, HDTVRip] MVO (Victory-Films) Galfimbul 27394560002.55 GB 0 0 1428663739

14:02

10-Апр-15

Зарубежные сериалы ·· Ночная смена / The Night Shift / Сезон: 1 / Серии: 1 из 8 (Марта Кулидж, Кевин Даулинг, Пьер Морель) [2014, драма, WEB-DL 720p] MVO (Flux-Team) + Original Galfimbul 16189136681.51 GB 0 0 1451929718

20:48

4-Янв-16

Зарубежные сериалы ·· Ночная смена / The Night Shift / Сезон: 1 / Серии: 1 из 8 (Марта Кулидж, Кевин Даулинг, Пьер Морель) [2014, драма, комедия, WEB-DLRip] MVO (Flux-Team) + Original Galfimbul 610211840582 MB 0 0 1451917111

17:18

4-Янв-16

Зарубежные сериалы ·· Ночная смена / The Night Shift / Сезон: 2 / Серия: 1 из 8 (Эрик ла Саль) [2015, драма, медицина, WEB-DLRip] VO (DexterTV) Galfimbul 494012416471 MB 0 0 1429301067

23:04

17-Апр-15

Зарубежные сериалы ·· Ночная смена (1 сезон: 1-3 серии из 8) / The Night Shift (Марта Кулидж, Кевин Даулинг, Пьер Морель) [2014, Боевик, драма, комедия, WEB-DL 1080p] (Paradox) Galfimbul 54398247955.07 GB 0 0 1404430773

02:39

4-Июл-14

Зарубежные сериалы ·· Ночная смена (1 сезон: 1-3 серии из 8) / The Night Shift (Марта Кулидж, Кевин Даулинг, Пьер Морель) [2014, Боевик, драма, комедия, WEB-DL 720p] (Paradox) Galfimbul 46914833004.37 GB 0 0 1404430754

02:39

4-Июл-14

Зарубежные сериалы ·· Ночная смена (1 сезон: 1-3 серии из 8) / The Night Shift (Марта Кулидж, Кевин Даулинг, Пьер Морель) [2014, Боевик, драма, комедия, WEB-DLRip] (Paradox) Galfimbul 18398310401.71 GB 0 0 1402928253

17:17

16-Июн-14

Еще никто не оставлял запись к записи скачать торрент Ночная смена The Night Shift . Будь первым!

!Обратная связь