Скачать через торрент Похитители Юные Фильм бесплатно в хорошем качестве torrent

Скачивайте на UnionPeer.org фильмы через торрент без регистрации. Новинки кино в хорошем качестве через торрент. На UnionPeer.org можно скачать через торрент фильмы 2014 и 2015 годов. Самые новые фильмы.

Скачать торрент Похитители Юные бесплатно через .torrent фильм мультфильм сериал

Статистика раздачи
Размер:  3.81 GB   |    Зарегистрирован:  7 лет 7 месяцев   |    .torrent скачан:  118 раз   |   
Раздают:  1  
   
 
Автор Сообщение

Galfimbul

avatar Galfimbul


Похитители / Юные девушки на продажу / The Abductors / Young Girls for Sale

Страна: США
Студия: Derio
Жанр: драма
Год выпуска: 1972
Продолжительность: 01:30:45

Перевод: Одноголосый закадровый Переводчик не опознан
Cубтитры: нет
Оригинальная аудиодорожка: английский

Режиссер: Дон Шэйн / Don Schain

В ролях: Шери Каффаро, Ричард Смедли, Патрик Райт

Описание: Кто-то похищает девушек из группы-поддержки и продает их на аукционе в качестве сексуальных рабынь. Героиня прошлого фильма Ginger / Джинджер (1971) по имени Джинджер, работающая в полиции, вызвана, чтобы расследовать это непростое дело. Работая под прикрытием с напарником, она готова пойти на всё, чтобы добраться до истины и завершить дело поимкой преступников.

Доп. информация: Диск из собственной коллекции.

Бонусы: Фильмография, галерея

Сэмпл: http://sendfile.su/1251716

Тип релиза: DVD5 (Custom)
Контейнер: DVD-Video

Видео: NTSC 4:3 (720x480) VBR
Аудио: Russian (Dolby AC3, 192 Кбит/сек, 2 ch)
Аудио 2: Russian (Dolby AC3, 192 Кбит/сек. 2 ch)
Title: The Abductors_1972
Size: 3.81 Gb ( 3 998 924,00 KBytes ) - DVD-5
Enabled regions: 1, 2, 3, 4, 5, 6, 7, 8

VTS_01 :
Play Length: 01:30:19+00:00:23+{00:00:00}+00:00:00+00:00:00+00:00:00+00:00:00+00:00:00+00:00:03+00:00:00
Video: NTSC 4:3 (720x480) VBR
Audio:
Russian, AC3, 2/0 (L,R) ch, 192 kbps, Delay 0 mSec
English, AC3, 2/0 (L,R) ch, 192 kbps, Delay 0 mSec

* Menus Information *

VIDEO_TS Menu
Video:
NTSC 4:3 (720x480) VBR
Audio:
Not specified (Dolby AC3, 2 ch)
English Language Unit :
Title Menu

VTS_01 Menu
Video:
NTSC 4:3 (720x480) VBR
English Language Unit :
Root Menu
Общее
Полное имя : C:\1\DVD ГОТОВ\The Abductors_1972\VIDEO_TS\VTS_01_1.VOB
Формат : MPEG-PS
Размер файла : 1024 Мбайт
Продолжительность : 23 м.
Режим общего битрейта : Переменный
Общий поток : 6187 Кбит/сек

Видео
Идентификатор : 224 (0xE0)
Формат : MPEG Video
Версия формата : Version 2
Профиль формата : Main@Main
Параметр BVOP формата : Да
Параметр матрицы формата : По умолчанию
Параметр GOP формата : M=5, N=26
Структура изображения : Field
Продолжительность : 23 м.
Вид битрейта : Переменный
Битрейт : 5680 Кбит/сек
Максимальный битрейт : 7500 Кбит/сек
Ширина : 720 пикселей
Высота : 480 пикселей
Соотношение сторон : 4:3
Частота кадров : 29,970 кадров/сек
Стандарт вещания : NTSC
Цветовое пространство : YUV
Субдискретизация насыщенности : 4:2:0
Битовая глубина : 8 бит
Тип развёртки : Чересстрочная
Порядок развёртки : Верхнее поле первое
Метод сжатия : С потерями
Бит/(Пиксели*Кадры) : 0.548
Временной код первого кадра : 00:00:54:28
Оригинал временного кода : Group of pictures header
GOP, открыто/закрыто : Открыто
Размер потока : 940 Мбайт (92%)
Основные цвета : BT.601 NTSC
Характеристики трансфера : BT.601
Коэффициенты матрицы : BT.601

Аудио #1
Идентификатор : 189 (0xBD)-128 (0x80)
Формат : AC-3
Формат/Информация : Audio Coding 3
Расширение режима : CM (complete main)
Параметр Endianness формата : Big
Режим смешивания : DVD-Video
Продолжительность : 23 м.
Вид битрейта : Постоянный
Битрейт : 192 Кбит/сек
Каналы : 2 канала
Расположение каналов : Front: L R
Частота : 48,0 КГц
Метод сжатия : С потерями
Размер потока : 31,8 Мбайт (3%)

Аудио #2
Идентификатор : 189 (0xBD)-129 (0x81)
Формат : AC-3
Формат/Информация : Audio Coding 3
Расширение режима : CM (complete main)
Параметр Endianness формата : Big
Режим смешивания : DVD-Video
Продолжительность : 23 м.
Вид битрейта : Постоянный
Битрейт : 192 Кбит/сек
Каналы : 2 канала
Расположение каналов : Front: L R
Частота : 48,0 КГц
Метод сжатия : С потерями
Размер потока : 31,8 Мбайт (3%)

Меню


Внимание! AdBlock блокирует показ скриншотов, все вопросы к разработчикам )))
Трекер:  [ 21-Июл-2016 23:00 ]

  

Скачать .torrent

Размер .torrent файла 20 KB


Размер: 3.81 GB
Хэш (hash) релиза: 0e2dca7b75aeb993548bcc810897292c2d207e8e
Подписка на обновления:

Еще никто не оставлял запись к записи скачать торрент Похитители Юные . Будь первым!

!Обратная связь