Скачать через торрент Пищевая фабрика Food Factory, Сезон 5 Фильм бесплатно в хорошем качестве torrent

Скачивайте на UnionPeer.org фильмы через торрент без регистрации. Новинки кино в хорошем качестве через торрент. На UnionPeer.org можно скачать через торрент фильмы 2014 и 2015 годов. Самые новые фильмы.

Скачать торрент Пищевая фабрика Food Factory, Сезон 5 бесплатно через .torrent фильм мультфильм сериал

Статистика раздачи
Размер:  28.64 GB   |    Зарегистрирован:  3 года   |    .torrent скачан:  54 раза   |   
Раздают:  1  
   
загрузка...
 
Автор Сообщение

Galfimbul

avatar Galfimbul


Пищевая фабрика / Food Factory, Сезон 5 (18 серий из 18)
+ bonus: Ночная смена / Night Shift, Сезон 1 (8 серий)

Год выпуска: 2015
Страна: Канада
Студия: A Cineflix (Food Factory 5) Inc.
Жанр: Научно-популярный
Продолжительность: 18+8 серий x ~ 00:21:00
Перевод: Профессиональный (одноголосый закадровый)
Описание: Новое поучительное и завораживающее шоу проводит нас за кулисы удивительных производственных линий, чтобы показать, как в действительности делается еда. Вам когда-нибудь было любопытно узнать, каким образом овощи для супа фирмы "Campbell" нарезаны столь идеально для каждой банки или как делаются ириски? Откройте секреты популярных канадских продуктов в новой увлекательной программе "Пищевая фабрика". За каждой упаковкой чипсов, за каждой банкой пива, плиткой шоколада или буханкой хлеба стоит гигантская производственная линия, благодаря которой все эти продукты становятся доступными массам. Каждая серия позволяет заглянуть в производственный цех и подробно рассмотреть процесс изготовления четырех канадских продуктов - от ингредиентов до используемых технологий. От макарон и песто до жевательной резинки и канадского виски - узнайте о чудесном процессе превращения исходного сырья во всеми любимые продукты.

Сэмпл: http://multi-up.com/1111723

Тип релиза: HDTV 1080i
Контейнер: TS

Видео: MPEG4 Video (H264) 1920x1080 25fps ~6500 Kbps
Аудио 1: Russian [AC3, 48000 Hz, 5.1, 384 kb/s]
Аудио 2: English [AC3, 48000 Hz, 5.1, 384 kb/s]
01. Красное вино - Классическая красная лакрица, Майонез Срирача, Турецкий бёрек, Миндальное печенье с шоколадом
02. Тяжёлая работа - Конфеты с вишней, Рожки пасты, Клюквенные чизкейки, Снеки Чакри
03. Медовая сладость - Мёд, Овсяный хлеб, Шахматное печенье, Шоколадные вишни
04. Кверху солнечной стороной - Радужные конфеты, Рисовый уксус, Таиландский суп в пакете, Соленая карамель в шоколадной глазури
05. Немного лапши - Шоколадный батончик, Сырные Каннеллони, Рисовая лапша, Мускатная тыква
06. Жидкое золото - Кленовый сироп, Попкорн с миндалем, Лукум, Яблоки со вкусом винограда
07. Сырок есть - Пастила и сухофрукты, Сырная закуска, Пирожное, Гуакамоле
08. Одиссея по закускам - Необычный шоколад, Кофе в таблетках, Пельмени гёдза, Лунный сыр
09. Пусть едят икру - Черная икра, Картофельная запеканка, Шарики из ризотто, Трюфель из ледяного вина
10. Как насчёт капусты - Сэндвич из сырных крекеров с арахисовым маслом, Щербет на палочке, Вареники с черникой, Чипсы из капусты
11. Мятная зависимость - Конфеты с мятой, Соус из спаржи, Мягкая австралийская лакрица, Банановые чипсы
12. Как по маслу - Кекс со сливочно-арахисовой начинкой, Традиционные кексы, Апельсиновый джем, Сливочный соус карри
13. Сочный крем - Хлопья, Конфеты с малиновой начинкой, Гренки, Пищевые красители
14. Кверху маслом! - Леденцы из дикой вишни, Овощные слойки без глютена, Шоколадки с арахисовым маслом, Яблочное повидло
15. Легко как дважды два - Хлопья для завтрака, Чёрные фетуччини, Маринованные овощи, Жевательные персики
16. И барабанная дробь - Мороженое рожок, Солёные карамельки, Гипоаллергенные батончики, Мини-кугели
17. Горько-сладкий - Фруктовые снеки, Роллы, Горькие настойки, Хрустящая кукуруза шоколадом
18. Без кетчупа никуда - Чипсы с кетчупом, Шоколадные батончики, Сычуаньский соус, Жевательные конфеты
1. Ice, Ice, BLT (Лёд, лёд, сэндвич)
2. The Mother Lode (Настоящая жила)
3. Baby Cakes (Тортики)
4. Hole in One (Весь в дырочку)
5. King of Feasts
6. Brain Food
7. Plane Sailing
8. Chew-Chew!
GeneralID : 6 (0x6)Complete name : Пищевая фабрика HD\S05E01 Красное вино.tsFormat : MPEG-TSFile size : 1.12 GiBDuration : 20mn 46sOverall bit rate mode : VariableOverall bit rate : 7 718 Kbps

VideoID : 3200 (0xC80)Menu ID : 3203 (0xC83)Format : AVCFormat/Info : Advanced Video CodecFormat profile : High@L4Format settings, CABAC : YesFormat settings, ReFrames : 4 framesCodec ID : 27Duration : 20mn 47sBit rate : 6 560 KbpsWidth : 1 920 pixelsHeight : 1 080 pixelsDisplay aspect ratio : 16:9Frame rate : 25.000 fpsStandard : ComponentColor space : YUVChroma subsampling : 4:2:0Bit depth : 8 bitsScan type : InterlacedScan type, store method : Separated fieldsScan order : Top Field FirstBits/(Pixel*Frame) : 0.127Stream size : 975 MiB (85%)Color range : LimitedColor primaries : BT.709Transfer characteristics : BT.709Matrix coefficients : BT.709

Audio #1ID : 3202 (0xC82)Menu ID : 3203 (0xC83)Format : AC-3Format/Info : Audio Coding 3Mode extension : CM (complete main)Format settings, Endianness : BigCodec ID : 6Duration : 20mn 47sBit rate mode : ConstantBit rate : 384 KbpsChannel(s) : 6 channelsChannel positions : Front: L C R, Side: L R, LFESampling rate : 48.0 KHzFrame rate : 31.250 fps (1536 spf)Compression mode : LossyDelay relative to video : -20msStream size : 57.1 MiB (5%)

Audio #2ID : 3203 (0xC83)Menu ID : 3203 (0xC83)Format : AC-3Format/Info : Audio Coding 3Mode extension : CM (complete main)Format settings, Endianness : BigCodec ID : 6Duration : 20mn 47sBit rate mode : ConstantBit rate : 384 KbpsChannel(s) : 6 channelsChannel positions : Front: L C R, Side: L R, LFESampling rate : 48.0 KHzFrame rate : 31.250 fps (1536 spf)Compression mode : LossyDelay relative to video : -20msStream size : 57.1 MiB (5%)


Трекер:  [ 29-Июл-2016 23:00 ]

  

Скачать .torrent

Размер .torrent файла 151 KB


Размер: 28.64 GB
Хэш (hash) релиза: 34cc623023fbf336d5a732e667fcbefa7f47a442
Подписка на обновления:

Еще никто не оставлял запись к записи скачать торрент Пищевая фабрика Food Factory, Сезон 5 . Будь первым!

!Обратная связь