Скачать через торрент Голограмма для короля A Hologram for the King Фильм бесплатно в хорошем качестве torrent

Скачивайте на UnionPeer.org фильмы через торрент без регистрации. Новинки кино в хорошем качестве через торрент. На UnionPeer.org можно скачать через торрент фильмы 2014 и 2015 годов. Самые новые фильмы.

Скачать торрент Голограмма для короля A Hologram for the King бесплатно через .torrent фильм мультфильм сериал

Статистика раздачи
Размер:  6.6 GB   |    Зарегистрирован:  7 лет 9 месяцев   |    .torrent скачан:  225 раз   |   
Раздают:  1  
 

Скачать Голограмма для короля / A Hologram for the King (Том Тыквер / Tom Tykwer) [2016, Великобритания, Комедия, драма, BDRip 720p] iTunes через torrent

 
 
Автор Сообщение

Galfimbul

avatar Galfimbul


Голограмма для короля /A Hologram for the King

Год выхода: 2016
Жанр: Комедия, драма
Режиссер: Том Тыквер
В ролях: Том Хэнкс, Александр Блэк, Сарита Чоудхури, Сидсе Бабетт Кнудсен, Трэйси Фэирэуэй, Джейн Перри, Том Скерритт, Михаэль Бараль, Льюис Райнер, Александр Молкентин

О фильме:
Алан Клей - муж, отец, бизнесмен. Но его бизнес терпит крах, его брак трещит по швам, и он не знает, где взять деньги на оплату обучения дочери. Чтобы избежать банкротства и разорвать замкнутый круг, Клей отправляется в Саудовскую Аравию, где он надеется продвинуть свой дерзкий технологический проект. Во время томительного ожидания встречи с королем Алан познает скрытые тайны арабского мира, которые преображают реальность, подобно голограмме. Никто не подозревал, чем обернется это путешествие к Красному морю...



Страна: Великобритания, Франция, Германия, США, Мексика
Продолжительность: 01:33:44
Перевод: Дублированный | iTunes

Файл
Кодек: x264
Качество: BDRip 720p
Видео: 1280x536, 7727 Kbit/s, 23.976 fps
Звук:
Аудио #01: 48 kHz, AC3, 5.1, 384 Kbps | Дублированный, iTunes |
Аудио #02: 48 kHz, DTS, 5.1, 1510 kbps | Оригинал |
Субтитры: Английские

General
Unique ID : 208740822700015290741350406456823636065 (0x9D0A0525A09D97A9B5D19182E6ADE061)
Complete name : G:VideoA.Hologram.for.the.King.2016.D.BDRip.720p.ExKinoRay.mkv
Format : Matroska
Format version : Version 4 / Version 2
File size : 6.60 GiB
Duration : 1h 38mn
Overall bit rate : 9 622 Kbps
Movie name : A.Hologram.for.the.King.2016.D.BDRip.720p.ExKinoRay
Encoded date : UTC 2016-07-31 17:20:14
Writing application : mkvmerge v8.3.0 ('Over the Horizon') 64bit
Writing library : libebml v1.3.1 + libmatroska v1.4.2

Video
ID : 1
Format : AVC
Format/Info : Advanced Video Codec
Format profile : [email protected]
Format settings, CABAC : Yes
Format settings, ReFrames : 12 frames
Codec ID : V_MPEG4/ISO/AVC
Duration : 1h 38mn
Bit rate : 7 726 Kbps
Width : 1 280 pixels
Height : 536 pixels
Display aspect ratio : 2.40:1
Frame rate mode : Constant
Frame rate : 23.976 (24000/1001) fps
Color space : YUV
Chroma subsampling : 4:2:0
Bit depth : 8 bits
Scan type : Progressive
Bits/(Pixel*Frame) : 0.470
Stream size : 5.30 GiB (80%)
Writing library : x264 core 142 r2431+42 c69a006 tMod [8-bit@all X86_64]
Encoding settings : cabac=1 / ref=12 / deblock=1:-3:-3 / analyse=0x3:0x133 / me=umh / subme=11 / psy=1 / fade_compensate=0.00 / psy_rd=1.05:1.00 / mixed_ref=1 / me_range=32 / chroma_me=1 / trellis=2 / 8x8dct=1 / cqm=0 / deadzone=21,11 / fast_pskip=0 / chroma_qp_offset=-4 / threads=42 / lookahead_threads=4 / sliced_threads=0 / nr=0 / decimate=0 / interlaced=0 / bluray_compat=0 / constrained_intra=0 / fgo=0 / bframes=8 / b_pyramid=2 / b_adapt=2 / b_bias=0 / direct=3 / weightb=1 / open_gop=0 / weightp=2 / keyint=240 / keyint_min=23 / scenecut=40 / intra_refresh=0 / rc_lookahead=60 / rc=crf / mbtree=0 / crf=18.0000 / qcomp=0.60 / qpmin=0:0:0 / qpmax=69:69:69 / qpstep=4 / vbv_maxrate=40000 / vbv_bufsize=30000 / crf_max=0.0 / nal_hrd=none / filler=0 / ip_ratio=1.40 / pb_ratio=1.30 / aq=1:1.00 / aq-sensitivity=10.00 / aq-factor=1.00:1.00:1.00 / aq2=0 / aq3=0
Language : English
Default : Yes
Forced : No

Audio #1
ID : 2
Format : AC-3
Format/Info : Audio Coding 3
Mode extension : CM (complete main)
Format settings, Endianness : Big
Codec ID : A_AC3
Duration : 1h 38mn
Bit rate mode : Constant
Bit rate : 384 Kbps
Channel(s) : 6 channels
Channel positions : Front: L C R, Side: L R, LFE
Sampling rate : 48.0 KHz
Frame rate : 31.250 fps (1536 spf)
Compression mode : Lossy
Stream size : 270 MiB (4%)
Title : DUB [iTunes]
Language : Russian
Default : Yes
Forced : No

Audio #2
ID : 3
Format : DTS
Format/Info : Digital Theater Systems
Mode : 16
Format settings, Endianness : Big
Codec ID : A_DTS
Duration : 1h 38mn
Bit rate mode : Constant
Bit rate : 1 509 Kbps
Channel(s) : 6 channels
Channel positions : Front: L C R, Side: L R, LFE
Sampling rate : 48.0 KHz
Frame rate : 93.750 fps (512 spf)
Bit depth : 24 bits
Compression mode : Lossy
Stream size : 1.03 GiB (16%)
Title : Original
Language : English
Default : No
Forced : No

Text #1
ID : 4
Format : UTF-8
Codec ID : S_TEXT/UTF8
Codec ID/Info : UTF-8 Plain Text
Duration : 1h 30mn
Bit rate : 61 bps
Count of elements : 1151
Stream size : 40.7 KiB (0%)
Title : Full
Language : English
Default : No
Forced : No

Text #2
ID : 5
Format : UTF-8
Codec ID : S_TEXT/UTF8
Codec ID/Info : UTF-8 Plain Text
Duration : 1h 30mn
Bit rate : 66 bps
Count of elements : 1240
Stream size : 44.0 KiB (0%)
Title : SDH
Language : English
Default : No
Forced : No

Menu
00:00:00.000 : en:00:00:00.000
00:05:09.476 : en:00:05:09.476
00:12:09.687 : en:00:12:09.687
00:17:35.346 : en:00:17:35.346
00:24:02.149 : en:00:24:02.149
00:32:05.382 : en:00:32:05.382
00:35:27.041 : en:00:35:27.041
00:43:32.902 : en:00:43:32.902
00:49:44.106 : en:00:49:44.106
00:53:59.361 : en:00:53:59.361
01:00:51.147 : en:01:00:51.147
01:08:51.794 : en:01:08:51.794
01:11:05.219 : en:01:11:05.219
01:16:52.107 : en:01:16:52.107
01:24:03.705 : en:01:24:03.705
01:31:58.429 : en:01:31:58.429
Релиз от: Автор релиза:

Внимание! AdBlock блокирует показ скриншотов, все вопросы к разработчикам )))

Трекер:  [ 31-Июл-2016 20:30 ]

  

Скачать .torrent

Размер .torrent файла 33 KB


Размер: 6.6 GB
Хэш (hash) релиза: 048f0c3e177d5b13796d1d6849306bd89d90da95
Подписка на обновления:

Торренты, похожие на Голограмма для короля A Hologram for the King скачать торрент

Форум Название Автор Размер S L Добавлен
Зарубежные фильмы 2016-2019 (Новинки зарубежного кино) ·%· Голограмма для короля / A Hologram for the King (2016) BDRemux 1080p от TeamHD & NNNB | D, A Galfimbul 2886971080826.89 GB 1 1 1542619327

12:22

19-Ноя-18

Зарубежные фильмы до 2016 ·· Голограмма для короля / A Hologram for the King (Том Тыквер / Tom Tykwer) [2016, Великобритания, Великобритания, Франция, Германия, Мексика, США, Комедия, драма, DVD9] R5 Dub Galfimbul 62364487685.81 GB 0 0 1527190263

22:31

24-Май-18

Зарубежные фильмы 2016-2019 (Новинки зарубежного кино) ·· Голограмма для короля / A Hologram for the King (Том Тыквер / Tom Tykwer) [2016, Великобритания, Франция, комедия, драма, BDRip-AVC] Dub + Original + Sub (eng) Galfimbul 31105194862.9 GB 0 0 1472133248

16:54

25-Авг-16

Зарубежные фильмы 2016-2019 (Новинки зарубежного кино) ·· Голограмма для короля / A Hologram for the King (Том Тыквер / Tom Tykwer) [2016, Великобритания, Комедия, драма, HDRip] Dub (iTunes) Galfimbul 783796078747 MB 0 0 1469878171

14:29

30-Июл-16

Зарубежные фильмы 2016-2019 (Новинки зарубежного кино) ·· Голограмма для короля / A Hologram for the King (Том Тыквер) [2016, комедия, драма, BDRip 1080p] iTunes Galfimbul 85001937807.92 GB 0 0 1469704369

14:12

28-Июл-16

Зарубежные фильмы 2016-2019 (Новинки зарубежного кино) ·· Голограмма для короля / A Hologram for the King (Том Тыквер) [2016, комедия, драма, BDRip 720p] iTunes Galfimbul 49773957054.64 GB 0 0 1469682975

08:16

28-Июл-16

Зарубежные фильмы 2016-2019 (Новинки зарубежного кино) ·· Голограмма для короля / A Hologram for the King (Том Тыквер) [2016, комедия, драма, HDRip] iTunes Galfimbul 14674104321.37 GB 0 0 1469682969

08:16

28-Июл-16

Зарубежные фильмы 2016-2019 (Новинки зарубежного кино) ·· Голограмма для короля / A Hologram for the King (Том Тыквер / Tom Tykwer) [2016, Великобритания, Франция, комедия, драма, WEB-DLRip-AVC] [Локализованный видеоряд] Dub Galfimbul 15678074641.46 GB 0 0 1466627595

23:33

22-Июн-16

Зарубежные фильмы 2016-2019 (Новинки зарубежного кино) ·· Голограмма для короля / A Hologram for the King (Том Тыквер / Tom Tykwer) [2016, Великобритания, Комедия, драма, WEB-DLRip] Dub (iTunes) Galfimbul 15645736961.46 GB 0 0 1466605974

17:32

22-Июн-16

Зарубежные фильмы 2016-2019 (Новинки зарубежного кино) ·· Голограмма для короля / A Hologram for the King (Том Тыквер / Tom Tykwer) [2016, Великобритания, Комедия, драма, WEB-DLRip] Dub (iTunes) Galfimbul 783115330747 MB 0 0 1466605954

17:32

22-Июн-16

Зарубежные фильмы 2016-2019 (Новинки зарубежного кино) ·· Голограмма для короля / A Hologram for the King (Том Тыквер) [2016, комедия, драма, WEB-DL 720p] iTunes Galfimbul 32204482933 GB 0 0 1466584890

11:41

22-Июн-16

Зарубежные фильмы 2016-2019 (Новинки зарубежного кино) ·· Голограмма для короля / A Hologram for the King (Том Тыквер) [2016, комедия, драма, WEB-DL 1080p] iTunes Galfimbul 34187619233.18 GB 0 0 1466541928

23:45

21-Июн-16

Зарубежные фильмы 2016-2019 (Новинки зарубежного кино) ·· Голограмма для короля / A Hologram for the King (Том Тыквер) [2016, комедия, драма, WEB-DLRip] iTunes Galfimbul 14677626881.37 GB 0 0 1466538153

22:42

21-Июн-16

Еще никто не оставлял запись к записи скачать торрент Голограмма для короля A Hologram for the King . Будь первым!

!Обратная связь