Скачать через торрент Инквизитор Сезон: 1 Фильм бесплатно в хорошем качестве torrent

Скачивайте на UnionPeer.org фильмы через торрент без регистрации. Новинки кино в хорошем качестве через торрент. На UnionPeer.org можно скачать через торрент фильмы 2014 и 2015 годов. Самые новые фильмы.

Скачать торрент Инквизитор Сезон: 1 бесплатно через .torrent фильм мультфильм сериал

Статистика раздачи
Размер:  7.61 GB   |    Зарегистрирован:  2 года 7 месяцев   |    .torrent скачан:  190 раз   |   
Раздают:  1  
   
загрузка...
 
Автор Сообщение

Galfimbul

avatar Galfimbul


Инквизитор

Год выпуска: 2014
Производство: компания "Кинотелефильм", компания "Морозфильм" (участие) по заказу Продюсерской фирмы Игоря Толстунова (ПРОФИТ)
Жанр: детектив, триллер
Продолжительность: 00:50:00
Субтитры: нет

Режиссёр: Юрий Мороз

В ролях: Виктория Исакова, Александр Лыков, Андрей Смоляков, Константин Лавроненко, Виктор Вержбицкий, Дарья Мороз, Никита Тезин, Николай Козак, Борис Каморзин, Надежда Маркина, Виталий Коваленко, Алексей Вертков, Дмитрий Астрахан, Роман Мадянов, Клавдия Коршунова, Александр Голубев, Анна Уколова, Виталий Коваленко, Арнис Лицитис

Описание: Провинциальный городок на западной границе России потрясает череда зловещих убийств. Некто с жестокостью средневекового инквизитора отправляет на тот свет влиятельных людей, оставляя рядом с жертвой венок и загадочные послания на латыни. Именно в них содержится подсказка, кто станет следующим. Решать сложные головоломки и выслеживать убийцу берется петербургская сыщица Наталья Серебрянская.

Доп. информация: релиз группы Files-x, реклама отсутствует

Все раздачи сериала: <a href="tracker.php?f=9&nm=Инквизитор%20Мороз" class="postLink">Инквизитор</a>


Качество: WEBRip
Формат: AVI
Видео кодек: XviD
Аудио кодек: AC3
Видео: MPEG-4 Visual, 720х400, 25 кадр/с, ~1550 Кбит/сек, 0,210 bit/pixel
Аудио: АС3, 48 kHz, 2 ch, 192 Кбит/с
Общее
Полное имя                               : C:\otkat\Видео\Инквизитор.2015.WEB-DLRip.RG.Russkie.serialy.&.Files-x\01.Инквизитор.2015.WEB-DLRip.RG.Russkie.serialy.&.Files-x.avi
Формат                                   : AVI
Формат/Информация                        : Audio Video Interleave
Размер файла                             : 650 Мбайт
Продолжительность                        : 52 м.
Общий поток                              : 1716 Кбит/сек
Программа кодирования                    : VirtualDubMod 1.5.10.3 | www.virtualdub-fr.org || (build 2550/release)
Библиотека кодирования                   : VirtualDubMod build 2550/release

Видео
Идентификатор                            : 0
Формат                                   : MPEG-4 Visual
Профиль формата                          : Advanced Simple@L5
Параметр BVOP формата                    : 1
Параметр QPel формата                    : Нет
Параметр GMC формата                     : Без точки перехода
Параметр матрицы формата                 : Выборочная
Идентификатор кодека                     : XVID
Идентификатор кодека/Подсказка           : XviD
Продолжительность                        : 52 м.
Битрейт                                  : 1514 Кбит/сек
Ширина                                   : 720 пикселей
Высота                                   : 400 пикселей
Соотношение сторон                       : 16:9
Частота кадров                           : 25,000 кадров/сек
Цветовое пространство                    : YUV
Субдискретизация насыщенности            : 4:2:0
Битовая глубина                          : 8 бит
Тип развёртки                            : Прогрессивная
Метод сжатия                             : С потерями
Бит/(Пиксели*Кадры)                      : 0.210
Размер потока                            : 573 Мбайт (88%)
Библиотека кодирования                   : XviD 73

Аудио
Идентификатор                            : 1
Формат                                   : AC-3
Формат/Информация                        : Audio Coding 3
Расширение режима                        : CM (complete main)
Параметр Endianness формата              : Big
Идентификатор кодека                     : 2000
Продолжительность                        : 52 м.
Вид битрейта                             : Постоянный
Битрейт                                  : 192 Кбит/сек
Каналы                                   : 2 канала
Расположение каналов                     : Front: L R
Частота                                  : 48,0 КГц
Частота кадров                           : 31,250 кадров/сек (1536 spf)
Метод сжатия                             : С потерями
Размер потока                            : 72,7 Мбайт (11%)
Выравнивание                             : Разделение по промежуткам
Продолжительность промежутка             : 40  мс. (1,00 видеокадр)
Время предзагрузки промежутка            : 500  мс.


Трекер:  [ 13-Авг-2016 15:00 ]

  

Скачать .torrent

Размер .torrent файла 39 KB


Размер: 7.61 GB
Хэш (hash) релиза: ba4b56e1c6cd504c050532829c9741f9202d02e8
Подписка на обновления:

Еще никто не оставлял запись к записи скачать торрент Инквизитор Сезон: 1 . Будь первым!

!Обратная связь