Скачать через торрент Билли Джоэл. Дело доверия: Окно в Россию Billy Joel. A Matter of Trust: The Bridge to Russia Фильм бесплатно в хорошем качестве torrent

Скачивайте на UnionPeer.org фильмы через торрент без регистрации. Новинки кино в хорошем качестве через торрент. На UnionPeer.org можно скачать через торрент фильмы 2014 и 2015 годов. Самые новые фильмы.

Скачать торрент Билли Джоэл. Дело доверия: Окно в Россию Billy Joel. A Matter of Trust: The Bridge to Russia бесплатно через .torrent фильм мультфильм сериал

Статистика раздачи
Размер:  1.09 GB   |    Зарегистрирован:  7 лет 6 месяцев   |    .torrent скачан:  52 раза   |   
Раздают:  1  
   
 
Автор Сообщение

Galfimbul

avatar Galfimbul


Билли Джоэл. Окно в Россию / A Matter of Trust: The Bridge to Russia

Дата/Год выпуска: 2014
Страна: США
Жанр: Документальный, музыка, рок
Продолжительность: 01:13:32
Перевод: Профессиональный (многоголосый закадровый)
Русские субтитры: нет

Режиссер: Джим Браун / Jim Brown

Телеканал: 1 канал
Описание: В июле - августе 1987 года, после 100 шоу по всему миру в рамках тура "The Bridge", Билли Джоэл принял от Кремля приглашение приехать в СССР и провести шесть полноценных рок-шоу в Москве и Ленинграде. Во время пребывания в Советском Союзе Билли и его семья, а также музыканты, персонал и иностранные журналисты целыми днями общались с жителями двух столиц, среди которых у них появилось немало друзей. Фильм "Билли Джоэл. Окно в Россию" представляет собой расширенную версию того, что четверть века назад увидели и услышали поклонники Джоэла. К фильму о концерте, выпущенному на VHS в 1987 году, были добавлены семь ранее не издававшихся песен и бонусное исполнение "Pressure". Также был произведен полный ремастеринг музыки с оригинальных 35-мм негативов для достижения максимального качества.

Доп. информация: Рип с канала Первый HD. Из видеоряда удален логотип канала. Присутствуют послерекламные вставки с названием фильма.

Сэмпл: http://multi-up.com/1113776

качество: HDTVRip
формат: AVI
Видео: MPEG4, XviD, 720x400 (16:9), 25.000 fps, 1 925 Kbps (0.267 bit/pixel)
Аудио: AC-3, 48.0 KHz, 2 ch, 192 Kbps, CBR
ОбщееПолное имя : M:\Билли Джоэл. Окно в Россию.aviФормат : AVIФормат/Информация : Audio Video InterleaveРазмер файла : 1,09 ГбайтПродолжительность : 1 ч. 13 м.Общий поток : 2127 Кбит/секНазвание фильма : Билли Джоэл. Окно в Россию / A Matter of Trust: The Bridge to Russia (2014)Программа кодирования : VirtualDubMod 1.5.10.2 (build 2540/release)Библиотека кодирования : VirtualDubMod build 2540/releaseАвторское право : miha2154

ВидеоИдентификатор : 0Формат : MPEG-4 VisualПрофиль формата : Advanced Simple@L5Параметр BVOP формата : 1Параметр QPel формата : НетПараметр GMC формата : Без точки переходаПараметр матрицы формата : ВыборочнаяИдентификатор кодека : XVIDИдентификатор кодека/Подсказка : XviDПродолжительность : 1 ч. 13 м.Битрейт : 1925 Кбит/секШирина : 720 пикселейВысота : 400 пикселейСоотношение сторон : 16:9Частота кадров : 25,000 кадров/секЦветовое пространство : YUVСубдискретизация насыщенности : 4:2:0Битовая глубина : 8 битТип развёртки : ПрогрессивнаяМетод сжатия : С потерямиБит/(Пиксели*Кадры) : 0.267Размер потока : 1013 Мбайт (91%)Библиотека кодирования : XviD 65

АудиоИдентификатор : 1Формат : AC-3Формат/Информация : Audio Coding 3Расширение режима : CM (complete main)Параметр Endianness формата : BigИдентификатор кодека : 2000Продолжительность : 1 ч. 13 м.Вид битрейта : ПостоянныйБитрейт : 192 Кбит/секКаналы : 2 каналаРасположение каналов : Front: L RЧастота : 48,0 КГцЧастота кадров : 31,250 кадров/сек (1536 spf)Метод сжатия : С потерямиРазмер потока : 101 Мбайт (9%)Выравнивание : Разделение по промежуткамПродолжительность промежутка : 40 мс. (1,00 видеокадр)Время предзагрузки промежутка : 500 мс.Заголовок : Профессиональный (многоголосый закадровый) 1 канал


Внимание! AdBlock блокирует показ скриншотов, все вопросы к разработчикам )))
Трекер:  [ 14-Авг-2016 16:00 ]

  

Скачать .torrent

Размер .torrent файла 11 KB


Размер: 1.09 GB
Хэш (hash) релиза: 3a5e73acfcff1fe1f45b8b8945ba491a7d7d90ac
Подписка на обновления:

Торренты, похожие на Билли Джоэл. Дело доверия: Окно в Россию Billy Joel. A Matter of Trust: The Bridge to Russia скачать торрент

Форум Название Автор Размер S L Добавлен
Документальные фильмы и телепередачи ·· Билли Джоэл. Дело доверия. Мост в Россию / Окно в Россию / Billy Joel: A Matter of Trust. The Bridge to Russia. A Documentary Film (Джим Браун / Jim Brown) [2013, документальный, музыка, DVB] Galfimbul 18211881881.7 GB 0 0 1420637681

16:34

7-Янв-15

Еще никто не оставлял запись к записи скачать торрент Билли Джоэл. Дело доверия: Окно в Россию Billy Joel. A Matter of Trust: The Bridge to Russia . Будь первым!

!Обратная связь