Скачать через торрент Махпейкер Кесем Султан Фильм бесплатно в хорошем качестве torrent

Скачивайте на UnionPeer.org фильмы через торрент без регистрации. Новинки кино в хорошем качестве через торрент. На UnionPeer.org можно скачать через торрент фильмы 2014 и 2015 годов. Самые новые фильмы.

Скачать торрент Махпейкер Кесем Султан бесплатно через .torrent фильм мультфильм сериал

Статистика раздачи
Размер:  1.81 GB   |    Зарегистрирован:  7 лет 6 месяцев   |    .torrent скачан:  32 раза   |   
Раздают:  1  
 

Скачать Махпейкер / Кесем Султан / Mahpeyker - Kösem Sultan (Таркан Озель / Tarkan Özel) [2010, Турция, исторический, драма, DVDRip] DVO RedDiamond Studio + Original Tur через torrent

 
 
Автор Сообщение

Galfimbul

avatar Galfimbul


Махпейкер / Кесем Султан / Mahpeyker - Kösem Sultan

Страна: Турция
Жанр: исторический, драма
Год выпуска: 2010
Продолжительность: 01:53:49

Перевод: Любительский (двухголосый закадровый) - RedDiamond Studio
Cубтитры: нет
Оригинальная аудиодорожка: Турецкая

Режиссер: Таркан Озель/Tarkan Özel

В ролях: Сельда Алькор, Дамла Сонмез, Гохан Мумсу и др.

Описание: Фильм посвящен жизни последней фаворитки Султана Ахмета I, - взаимно и горячо им любимой законной супруге Махпейкер, или Кёсем-султан, - матери султанов Мурата IV и Ибрагима I, жившей в XVII веке и фактически правящей Османской Империей в течение 10 лет после смерти Ахмета I.

Сэмпл: https://yadi.sk/i/KIiRWwavuEwyy
Роли озвучивали: Полина Касаткина и Матвей Кенс
Перевод Анны Колбаскиной.
Качество видео: DVDRip
Формат видео: AVI

Видео: 720x384 (1.85:1), 25 fps, XviD build 50 ~1370 kbps avg, 0.198 bit/pixel
Аудио: AC3, 48 Khz, 448 Kbps, 5.1 ch (Rus DVO)
Аудио 2: AC3, 48 Khz, 448 Kbps, 5.1 ch (Original Tur)
General
Complete name : C:\Фильмы\Махпейкер.avi
Format : AVI
Format/Info : Audio Video Interleave
File size : 1.81 GiB
Duration : 1h 53mn
Overall bit rate : 2 279 Kbps
Writing application : VirtualDubMod 1.5.10.3 | www.virtualdub-fr.org || (build 2550/release)
Writing library : VirtualDubMod build 2550/release

Video
ID : 0
Format : MPEG-4 Visual
Format profile : Advanced Simple@L5
Format settings, BVOP : 2
Format settings, QPel : No
Format settings, GMC : No warppoints
Format settings, Matrix : Default (H.263)
Codec ID : XVID
Codec ID/Hint : XviD
Duration : 1h 53mn
Bit rate : 1 371 Kbps
Width : 720 pixels
Height : 384 pixels
Display aspect ratio : 1.85:1
Frame rate : 25.000 fps
Color space : YUV
Chroma subsampling : 4:2:0
Bit depth : 8 bits
Scan type : Progressive
Compression mode : Lossy
Bits/(Pixel*Frame) : 0.198
Stream size : 1.09 GiB (60%)
Writing library : XviD 1.2.1 (UTC 2008-12-04)

Audio #1
ID : 1
Format : AC-3
Format/Info : Audio Coding 3
Mode extension : CM (complete main)
Format settings, Endianness : Big
Codec ID : 2000
Duration : 1h 53mn
Bit rate mode : Constant
Bit rate : 448 Kbps
Channel(s) : 6 channels
Channel positions : Front: L C R, Side: L R, LFE
Sampling rate : 48.0 KHz
Frame rate : 31.250 fps (1536 spf)
Compression mode : Lossy
Stream size : 365 MiB (20%)
Alignment : Split accross interleaves
Interleave, duration : 40 ms (1.00 video frame)
Interleave, preload duratio : 500 ms

Audio #2
ID : 2
Format : AC-3
Format/Info : Audio Coding 3
Mode extension : CM (complete main)
Format settings, Endianness : Big
Codec ID : 2000
Duration : 1h 53mn
Bit rate mode : Constant
Bit rate : 448 Kbps
Channel(s) : 6 channels
Channel positions : Front: L C R, Side: L R, LFE
Sampling rate : 48.0 KHz
Frame rate : 31.250 fps (1536 spf)
Compression mode : Lossy
Stream size : 363 MiB (20%)
Alignment : Aligned on interleaves
Interleave, duration : 40 ms (1.00 video frame)
Interleave, preload duratio : 512 ms


Внимание! AdBlock блокирует показ скриншотов, все вопросы к разработчикам )))
Трекер:  [ 18-Авг-2016 07:00 ]

  

Скачать .torrent

Размер .torrent файла 18 KB


Размер: 1.81 GB
Хэш (hash) релиза: 6357a0797a5062a6d7d868b51c5008557d30218a
Подписка на обновления:

Еще никто не оставлял запись к записи скачать торрент Махпейкер Кесем Султан . Будь первым!

!Обратная связь