Скачать через торрент Большой Босс The Big Boss Фильм бесплатно в хорошем качестве torrent

Скачивайте на UnionPeer.org фильмы через торрент без регистрации. Новинки кино в хорошем качестве через торрент. На UnionPeer.org можно скачать через торрент фильмы 2014 и 2015 годов. Самые новые фильмы.

Скачать торрент Большой Босс The Big Boss бесплатно через .torrent фильм мультфильм сериал

Статистика раздачи
Размер:  1.44 GB   |    Зарегистрирован:  7 лет 6 месяцев   |    .torrent скачан:  67 раз   |   
Раздают:  1  
   
 
Автор Сообщение

Galfimbul

avatar Galfimbul


Большой Босс / The Big Boss / Tang shan da xiong / Боевик, триллер, драма, криминал

Страна: Гонконг
Жанр: Боевик, триллер, драма, криминал
Год выпуска: 1971
Продолжительность: 01:39:40

Перевод: Авторский (одноголосый закадровый) Василий Горчаков
Перевод 2: Авторский (одноголосый закадровый) Юрий Живов
Cубтитры: нет
Режиссер: Ло Вэй / Wei Lo / Чиа-хсианг Ву / Chia-Hsiang Wu

В ролях: Брюс Ли, Мария Йи, Джеймс Тьен, Мэрлин Баутиста, Инь-Чиэ Хань, Тони Лю, Куин Ли, Нора Миао, Сань Чинь, Чи Чен

Описание: Молодой парень Ченг устраивается работать в одну из бангкокских фирм, занимающуюся производством и поставкой льда. В скором времени Ченг выясняет, что производство льда служит всего лишь прикрытием для тех грязных делишек, которые проворачивает его шеф. Оказывается что внутри кубиков льда, поставкой которых занимается фирма, транспортируются наркотики, а сам шеф фирмы является известным наркодиллером. Родственники Ченга случайно становятся свидетелями тех дел, которые проворачиваются наркомафией, после этого они бесследно исчезают. Ченг точно знает, кто за всем этим стоит.......

Сэмпл: http://multi-up.com/1114022

Качество видео: HDRip (Исходник Tang.shan.da.xiong. 1971. 1080p. BDRip. mkv)
Формат видео: AVI

Видео: XviD, 720x304, (2,35:1), 23,976 fps, 1666 Кбит/с, 8 бит
Аудио: Русский (АС3, 2 ch (Front: L R), 48,0 KHz, 192 Kbps)
Аудио 2: Русский (АС3, 2 ch (Front: L R), 48,0 KHz, 192 Kbps)
Общее
Полное имя : F:\Видеофильмы\В и д е о\Большой Босс (боевик каратэ Брюс Ли).avi
Формат : AVI
Формат/Информация : Audio Video Interleave
Размер файла : 1,44 Гбайт
Продолжительность : 1 ч. 40 м.
Общий поток : 2064 Кбит/сек
Программа кодирования : VirtualDubMod 1.5.10.3 | www.virtualdub-fr.org || (build 2550/release)
Библиотека кодирования : VirtualDubMod build 2550/release

Видео
Идентификатор : 0
Формат : MPEG-4 Visual
Профиль формата : Advanced Simple@L5
Параметр BVOP формата : 2
Параметр QPel формата : Нет
Параметр GMC формата : Без точки перехода
Параметр матрицы формата : Выборочная
Идентификатор кодека : XVID
Идентификатор кодека/Подсказка : XviD
Продолжительность : 1 ч. 40 м.
Битрейт : 1666 Кбит/сек
Ширина : 720 пикселей
Высота : 304 пикселя
Соотношение сторон : 2,35:1
Частота кадров : 23,976 (23976/1000) кадра/сек
Цветовое пространство : YUV
Субдискретизация насыщенности : 4:2:0
Битовая глубина : 8 бит
Тип развёртки : Прогрессивная
Метод сжатия : С потерями
Бит/(Пиксели*Кадры) : 0.317
Размер потока : 1,17 Гбайт (81%)
Библиотека кодирования : XviD 1.2.1 (UTC 2008-12-04)

Аудио #1
Идентификатор : 1
Формат : AC-3
Формат/Информация : Audio Coding 3
Расширение режима : CM (complete main)
Параметр Endianness формата : Big
Идентификатор кодека : 2000
Продолжительность : 1 ч. 40 м.
Вид битрейта : Постоянный
Битрейт : 192 Кбит/сек
Каналы : 2 канала
Расположение каналов : Front: L R
Частота : 48,0 КГц
Частота кадров : 31,250 кадров/сек (1536 spf)
Метод сжатия : С потерями
Размер потока : 138 Мбайт (9%)
Выравнивание : Разделение по промежуткам
Продолжительность промежутка : 42 мс. (1,00 видеокадр)
Время предзагрузки промежутка : 500 мс.

Аудио #2
Идентификатор : 2
Формат : AC-3
Формат/Информация : Audio Coding 3
Расширение режима : CM (complete main)
Параметр Endianness формата : Big
Идентификатор кодека : 2000
Продолжительность : 1 ч. 40 м.
Вид битрейта : Постоянный
Битрейт : 192 Кбит/сек
Каналы : 2 канала
Расположение каналов : Front: L R
Частота : 48,0 КГц
Частота кадров : 31,250 кадров/сек (1536 spf)
Метод сжатия : С потерями
Размер потока : 138 Мбайт (9%)
Выравнивание : Разделение по промежуткам
Продолжительность промежутка : 42 мс. (1,00 видеокадр)
Время предзагрузки промежутка : 500 мс.


Внимание! AdBlock блокирует показ скриншотов, все вопросы к разработчикам )))
Трекер:  [ 19-Авг-2016 06:30 ]

  

Скачать .torrent

Размер .torrent файла 15 KB


Размер: 1.44 GB
Хэш (hash) релиза: 30615f2c6f30924d78fe4aee2088627d4a3039af
Подписка на обновления:

Торренты, похожие на Большой Босс The Big Boss скачать торрент

Форум Название Автор Размер S L Добавлен
Азиатские фильмы ·%· Большой Босс / The Big Boss / Tang shan da xiong (Ло Вэй / Wei Lo / Чиа-хсианг Ву / Chia-Hsiang Wu) [1971, Гонконг, боевик, криминал, HDRip] AVO (Василий Горчаков) + AVO (Юрий Живов) + AVO (Юрий Живов) + AVO (Леонид Володарский) Galfimbul 16956482561.58 GB 0 0 1528884066

13:01

13-Июн-18

Азиатские фильмы ·· Большой Босс / The Big Boss / Tang shan da xiong (Вэй Ло / Wei Lo, Чиа-хсианг Ву / Chia-Hsiang Wu) [1971, Гонконг, боевик, триллер, драма, BDRip 1080p] 2x MVO (Супербит, неопознанный) + 3x AVO (Королев, Горчаков, Живов) + Original Chi + Sub (Rus, Eng Galfimbul 1645157464115.32 GB 1 1 1428932732

16:45

13-Апр-15

Зарубежные фильмы до 2016 ·· Большой Босс / The Big Boss / Tang shan da xiong (Ло Вей / Lo Wei) [1971 г., Боевые искусства / Драма / Триллер, BDRip 1080p [url=https://adult-images.ru/1024/35489/]Смотреть онлайн[/url] [url=https://adult-images.ru/1024/35489/]Смотреть онлайн[/url] Umakiro 96098647158.95 GB 0 0 1326039002

19:10

8-Янв-12

Зарубежные фильмы до 2016 ·· Большой Босс / The Big Boss / Tang shan da xiong (Ло Вей / Lo Wei) [1971, восточные единоборства, боевик, HDRip] MVO + AVO (Королев) Galfimbul 786173952750 MB 0 0 1320877245

01:20

10-Ноя-11

Зарубежные фильмы до 2016 ·· Большой Босс / The Big Boss / Tang shan da xiong (Вэй Ло / Wei Lo, У Цзясян / Jiaxiang Wu) [1971, Гонконг, боевик, триллер, драма, криминал, HDRip] DVO Galfimbul 15702978561.46 GB 0 0 1320468982

07:56

5-Ноя-11

Еще никто не оставлял запись к записи скачать торрент Большой Босс The Big Boss . Будь первым!

!Обратная связь