The Nice Guys torrent

UnionPeer.org . . UnionPeer.org 2014 2015 . .

The Nice Guys .torrent

29.28 GB   |    :  7 6    |    .torrent :  50    |   
1  
   
 

Galfimbul

avatar Galfimbul


/ The Nice Guys

: ,
: ,
: 2016
: 01:55:57

: () - iTunes
: ( ) -
C: (, . c), (, SDH)
:
: / Shane Black
: , , , , , , , , ,
: - , ? - 1970 , , , , . , , .
: BDRemux
: MKV

: 1920x1080 at 23.976 fps, MPEG-4 AVC, ~27646 kbps avg
: Russian: 48 kHz, AC3, 3/2 (L,C,R,l,r) + LFE ch, ~384.00 kbps avg |, iTunes Russia|
: Russian DTS-HD MA, 5.1 ch, 48 kHz, 3751 kbps, 24-bit (DTS Core: 5.1 / 48 kHz / 1509 kbps / 24-bit) | | - .!
: DTS-HD Master Audio English 3721 kbps 5.1 / 48 kHz / 3721 kbps / 24-bit (DTS Core: 5.1 / 48 kHz / 1509 kbps / 24-bit)
: English: 48 kHz, AC3, 3/2 (L,C,R,l,r) + LFE ch, ~640.00 kbps avg |Descriptive|

Blu-ray.
Format : Matroska
Format version : Version 2
File size : 29.3 GiB
Duration : 1 h 55 min
Overall bit rate mode : Variable
Overall bit rate : 36.1 Mb/s
Encoded date : UTC 2016-08-23 08:14:07
Writing application : mkvmerge v4.2.0 ('No Talking') Jul 28 2010 18:38:23
Writing library : libebml v1.0.0 + libmatroska v1.0.0

Video
ID : 1
Format : AVC
Format/Info : Advanced Video Codec
Format profile : [email protected]
Format settings, CABAC : Yes
Format settings, ReFrames : 2 frames
Format settings, GOP : M=1, N=10
Codec ID : V_MPEG4/ISO/AVC
Duration : 1 h 55 min
Bit rate mode : Variable
Width : 1 920 pixels
Height : 1 080 pixels
Display aspect ratio : 16:9
Frame rate mode : Constant
Frame rate : 23.976 (24000/1001) FPS
Color space : YUV
Chroma subsampling : 4:2:0
Bit depth : 8 bits
Scan type : Progressive
Default : Yes
Forced : No

Audio #1
ID : 2
Format : AC-3
Format/Info : Audio Coding 3
Mode extension : CM (complete main)
Format settings, Endianness : Big
Codec ID : A_AC3
Duration : 1 h 55 min
Bit rate mode : Constant
Bit rate : 384 kb/s
Channel(s) : 6 channels
Channel positions : Front: L C R, Side: L R, LFE
Sampling rate : 48.0 kHz
Frame rate : 31.250 FPS (1536 spf)
Compression mode : Lossy
Stream size : 318 MiB (1%)
Title : iTunes
Language : Russian
Default : Yes
Forced : No

Audio #2
ID : 3
Format : DTS
Format/Info : Digital Theater Systems
Format profile : MA / Core
Mode : 16
Format settings, Endianness : Big
Codec ID : A_DTS
Duration : 1 h 55 min
Bit rate mode : Variable / Constant
Bit rate : Unknown / 1 509 kb/s
Channel(s) : 6 channels
Channel positions : Front: L C R, Side: L R, LFE
Sampling rate : 48.0 kHz
Frame rate : 93.750 FPS (512 spf)
Bit depth : 24 bits
Compression mode : Lossless / Lossy
Title :
Language : Russian
Default : No
Forced : No

Audio #3
ID : 4
Format : DTS
Format/Info : Digital Theater Systems
Format profile : MA / Core
Mode : 16
Format settings, Endianness : Big
Codec ID : A_DTS
Duration : 1 h 55 min
Bit rate mode : Variable / Constant
Bit rate : Unknown / 1 509 kb/s
Channel(s) : 6 channels
Channel positions : Front: L C R, Side: L R, LFE
Sampling rate : 48.0 kHz
Frame rate : 93.750 FPS (512 spf)
Bit depth : 24 bits
Compression mode : Lossless / Lossy
Default : No
Forced : No

Audio #4
ID : 5
Format : AC-3
Format/Info : Audio Coding 3
Mode extension : CM (complete main)
Format settings, Endianness : Big
Codec ID : A_AC3
Duration : 1 h 55 min
Bit rate mode : Constant
Bit rate : 640 kb/s
Channel(s) : 6 channels
Channel positions : Front: L C R, Side: L R, LFE
Sampling rate : 48.0 kHz
Frame rate : 31.250 FPS (1536 spf)
Compression mode : Lossy
Stream size : 531 MiB (2%)
Language : English
Default : No
Forced : No

Text #1
ID : 6
Format : UTF-8
Codec ID : S_TEXT/UTF8
Codec ID/Info : UTF-8 Plain Text
Language : Russian
Default : No
Forced : No

Text #2
ID : 7
Format : UTF-8
Codec ID : S_TEXT/UTF8
Codec ID/Info : UTF-8 Plain Text
Language : English
Default : No
Forced : No

Text #3
ID : 8
Format : UTF-8
Codec ID : S_TEXT/UTF8
Codec ID/Info : UTF-8 Plain Text
Language : English
Default : No
Forced : No

Menu
00:00:00.000 : en:
00:10:41.682 : en:
00:21:07.307 : en:
00:29:12.875 : en:
00:40:12.742 : en:
00:50:50.462 : en:
01:01:02.032 : en:
01:10:15.417 : en:
01:19:59.085 : en:
01:29:40.707 : en:
01:40:10.337 : en:
01:48:35.800 : en:
01:50:49.975 : en:


! AdBlock , )))
 ·  , , FAQ-
:  [ 23--2016 11:30 ]

  

.torrent

.torrent 147 KB


: 29.28 GB
(hash) : 773cea4d96bd3915d8abb686669625266b27886d
:
··
...

, The Nice Guys

S L
2016-2019 ( ) ·%·  / The Nice Guys (2016) WEBRip 2160p MediaClub | HDR | D, P2, A Galfimbul 2150668689620.03 GB 0 0 1532168410

13:20

21--18

2016 ··  / The Nice Guys ( / Shane Black) [2016, , , , , , DVD9] Dub Galfimbul 70661263366.58 GB 0 0 1524499286

19:01

23--18

2016 ··  / The Nice Guys ( / Shane Black) [2016, , , , , BDRip 720p] Dub (BD RUS) + DVO ( ) + VO (.) + Sub Rus, Eng + Original Eng Galfimbul 66245216286.17 GB 0 0 1485188770

19:26

23--17

2016 ··  / The Nice Guys ( / Shane Black) [2016, , , , , Blu-ray disc 1080p] [RUS] Dub Galfimbul 2249557545420.95 GB 0 0 1476130306

23:11

10--16

2016 ··  / The Nice Guys ( / Shane Black) [2016, , , , , BDRip 1080p] Dub (BD RUS) + DVO ( ) + VO (.) + Sub Rus, Eng + Original Eng Galfimbul 1740487590916.21 GB 0 0 1475357680

00:34

2--16

2016 ··  / The Nice Guys ( / Shane Black) [2016, , , , , BDRip 1080p] Dub (iTunes) + DVO ( ) + VO (.) + Sub Rus, Eng + Original Eng Galfimbul 1642697994115.3 GB 0 0 1474712958

13:29

24--16

2016 ··  / The Nice Guys ( / Shane Black) [2016, , , , , BDRip 1080p] Dub (iTunes) + DVO ( ) + Sub Rus, Eng + Original Eng Galfimbul 1511398724114.08 GB 0 0 1472153773

22:36

25--16

2016 ··  / The Nice Guys ( / Shane Black) [2016, , , , , BDRemux 1080p] Dub (iTunes) + Sub Rus, Eng + Original Eng Galfimbul 2817217350726.24 GB 0 0 1471727934

00:18

21--16

2016 ··  / The Nice Guys ( / Shane Black) [2016, , , , , BDRip 720p] Dub (iTunes) + Sub Rus, Eng + Original Eng Galfimbul 60447033055.63 GB 0 0 1471727929

00:18

21--16

2016 ··  / The Nice Guys ( / Shane Black) [2016, , , , , BDRemux 1080p] Dub (iTunes) + Original (Eng) + Sub (Eng) Galfimbul 2761845585925.72 GB 0 0 1470990636

11:30

12--16

2016-2019 ( ) ··  / The Nice Guys ( / Shane Black) [2016, , , , BDRip-AVC] Dub + Original + Subs (rus, eng) Galfimbul 22071579852.06 GB 0 0 1470915390

14:36

11--16

2016-2019 ( ) ··  / The Nice Guys ( / Shane Black) [2016, , , , , BDRip 720p] iTunes Galfimbul 81654479327.6 GB 0 0 1470706835

04:40

9--16

2016-2019 ( ) ··  / The Nice Guys ( / Shane Black) [2016, , , , , HDRip] iTunes Galfimbul 14694338561.37 GB 0 0 1470546698

08:11

7--16

2016-2019 ( ) ··  / The Nice Guys ( / Shane Black) [2016, , , , , HDRip] iTunes Galfimbul 22112235522.06 GB 0 0 1470546692

08:11

7--16

2016-2019 ( ) ··  / The Nice Guys ( / Shane Black) [2016, , , , , BDRip 720p] iTunes Galfimbul 62015927505.78 GB 0 0 1470546686

08:11

7--16

2016-2019 ( ) ··  / The Nice Guys ( / Shane Black) [2016, , , , , BDRip 1080p] iTunes Galfimbul 97230309809.06 GB 0 0 1470546681

08:11

7--16

2016 ··  / The Nice Guys ( / Shane Black) [2016, , , , , WEB-DL 1080p] Dub (iTunes) Galfimbul 40013618063.73 GB 0 0 1469967887

15:24

31--16

2016-2019 ( ) ··  / The Nice Guys ( / Shane Black) [2016, , , , WEB-DLRip-AVC] Dub (iTunes) Galfimbul 15577883181.45 GB 0 0 1469745007

01:30

29--16

2016-2019 ( ) ··  / The Nice Guys ( / Shane Black) [2016, , , , , WEB-DL 720] iTunes Galfimbul 36637083203.41 GB 0 0 1469701505

13:25

28--16

The Nice Guys . !

!