The Boss torrent

UnionPeer.org . . UnionPeer.org 2014 2015 . .

The Boss .torrent

9.1 GB   |    :  7 6    |    .torrent :  30    |   
1  
   
 

Galfimbul

avatar Galfimbul


/ The Boss / / Theatrical Cut

: 2016
:
: Universal Pictures
:
: 01:38:49
: () Blu-ray CEE / UPI
C: , ,
:
: / Ben Falcone
: , , , , , , , , , .
: , , , , , , , , , , , , , , , , . , , , , , , , , , , , .
: -, , , . , , .
:
: BDRip 1080p |DON|
: MKV
: H.264
: DTS
: H.264, 1920x1038 (1.85:1), 23.976 fps, ~10.9 Mbps, 0.228 bit/pixel
:

|Blu-ray CEE|: DTS, 48 kHz, 6 ch, 768 kbps
||: DTS, 48 kHz, 6 ch, 1509 kbps
\
General
Unique ID : 254781923943161653849675716341508213995 (0xBFAD36B27DF75D7383A668B9524A0CEB)
Complete name : E:\Video\HD\Movies (HD)\The Boss (2016) (BDRip 1080p l Theatrical Cut).mkv
Format : Matroska
Format version : Version 4 / Version 2
File size : 9.10 GiB
Duration : 1h 38mn
Overall bit rate : 13.2 Mbps
Encoded date : UTC 2016-08-20 07:13:17
Writing application : mkvmerge v8.8.0 ('Wind at my back') 32bit
Writing library : libebml v1.3.3 + libmatroska v1.4.4
DURATION : 01:37:55.131000000
NUMBER_OF_FRAMES : 2193
NUMBER_OF_BYTES : 73874
_STATISTICS_WRITING_APP : mkvmerge v8.8.0 ('Wind at my back') 32bit
_STATISTICS_WRITING_DATE_UTC : 2016-08-20 07:13:17
_STATISTICS_TAGS : BPS DURATION NUMBER_OF_FRAMES NUMBER_OF_BYTES

Video
ID : 1
Format : AVC
Format/Info : Advanced Video Codec
Format profile : [email protected]
Format settings, CABAC : Yes
Format settings, ReFrames : 4 frames
Codec ID : V_MPEG4/ISO/AVC
Duration : 1h 38mn
Bit rate : 10.9 Mbps
Width : 1 920 pixels
Height : 1 038 pixels
Display aspect ratio : 1.85:1
Frame rate mode : Constant
Frame rate : 23.976 fps
Color space : YUV
Chroma subsampling : 4:2:0
Bit depth : 8 bits
Scan type : Progressive
Bits/(Pixel*Frame) : 0.228
Stream size : 7.35 GiB (81%)
Writing library : x264 core 148 r2705 3f5ed56
Encoding settings : cabac=1 / ref=4 / deblock=1:-3:-3 / analyse=0x3:0x133 / me=umh / subme=11 / psy=1 / psy_rd=1.05:0.00 / mixed_ref=1 / me_range=32 / chroma_me=1 / trellis=2 / 8x8dct=1 / cqm=0 / deadzone=21,11 / fast_pskip=0 / chroma_qp_offset=-2 / threads=18 / lookahead_threads=3 / sliced_threads=0 / slices=4 / nr=0 / decimate=0 / interlaced=0 / bluray_compat=0 / constrained_intra=0 / bframes=8 / b_pyramid=2 / b_adapt=2 / b_bias=0 / direct=3 / weightb=1 / open_gop=0 / weightp=2 / keyint=250 / keyint_min=23 / scenecut=40 / intra_refresh=0 / rc_lookahead=40 / rc=2pass / mbtree=0 / bitrate=10900 / ratetol=1.0 / qcomp=0.65 / qpmin=0 / qpmax=51 / qpstep=4 / cplxblur=20.0 / qblur=0.5 / vbv_maxrate=62500 / vbv_bufsize=78125 / nal_hrd=none / filler=0 / ip_ratio=1.35 / pb_ratio=1.25 / aq=3:0.75 / zones=0,863,b=2
Language : English
Default : Yes
Forced : No
DURATION : 01:38:48.923000000
NUMBER_OF_FRAMES : 142152
NUMBER_OF_BYTES : 8081506066
_STATISTICS_WRITING_APP : mkvmerge v8.8.0 ('Wind at my back') 32bit
_STATISTICS_WRITING_DATE_UTC : 2016-08-20 07:13:17
_STATISTICS_TAGS : BPS DURATION NUMBER_OF_FRAMES NUMBER_OF_BYTES

Audio #1
ID : 2
Format : DTS
Format/Info : Digital Theater Systems
Mode : 16
Format settings, Endianness : Big
Codec ID : A_DTS
Duration : 1h 38mn
Bit rate mode : Constant
Bit rate : 768 Kbps
Channel(s) : 6 channels
Channel positions : Front: L C R, Side: L R, LFE
Sampling rate : 48.0 KHz
Bit depth : 24 bits
Compression mode : Lossy
Stream size : 543 MiB (6%)
Title : DUB (Blu-ray CEE / UPI)
Language : Russian
Default : Yes
Forced : No

Audio #2
ID : 3
Format : DTS
Format/Info : Digital Theater Systems
Mode : 16
Format settings, Endianness : Big
Codec ID : A_DTS
Duration : 1h 38mn
Bit rate mode : Constant
Bit rate : 1 509 Kbps
Channel(s) : 6 channels
Channel positions : Front: L C R, Side: L R, LFE
Sampling rate : 48.0 KHz
Bit depth : 24 bits
Compression mode : Lossy
Stream size : 1.04 GiB (11%)
Title : Original
Language : English
Default : No
Forced : No

Text #1
ID : 4
Format : UTF-8
Codec ID : S_TEXT/UTF8
Codec ID/Info : UTF-8 Plain Text
Title : Forced
Language : Russian
Default : Yes
Forced : No

Text #2
ID : 5
Format : UTF-8
Codec ID : S_TEXT/UTF8
Codec ID/Info : UTF-8 Plain Text
Title : Full
Language : Russian
Default : No
Forced : No

Text #3
ID : 6
Format : UTF-8
Codec ID : S_TEXT/UTF8
Codec ID/Info : UTF-8 Plain Text
Title : Full
Language : Ukrainian
Default : No
Forced : No

Text #4
ID : 7
Format : UTF-8
Codec ID : S_TEXT/UTF8
Codec ID/Info : UTF-8 Plain Text
Title : SDH
Language : English
Default : No
Forced : No

Menu
00:00:00.000 : en:1
00:05:59.985 : en:2
00:09:41.456 : en:3
00:14:48.346 : en:4
00:20:44.160 : en:5
00:24:03.817 : en:6
00:29:59.840 : en:7
00:35:27.542 : en:8
00:39:59.105 : en:9
00:44:55.484 : en:10
00:50:30.027 : en:11
00:53:32.209 : en:12
00:59:51.296 : en:13
01:05:55.076 : en:14
01:10:32.061 : en:15
01:13:54.680 : en:16
01:19:30.224 : en:17
01:25:08.020 : en:18
01:32:06.229 : en:19
01:33:26.434 : en:20



! AdBlock , )))
 ·  , , FAQ-
:  [ 23--2016 13:00 ]

  

.torrent

.torrent 23 KB


: 9.1 GB
(hash) : 3c939021c49aae658997e868ae9cbae5819779d8
:
··
...

, The Boss

S L
2016 ··  / The Boss ( / Ben Falcone) [, 2016, , DVD9] Dub + Sub Eng + Original Eng Galfimbul 80684308397.51 GB 0 0 1502051808

23:36

6--17

2016-2019 ( ) ··  / The Boss ( / Ben Falcone) [2016, , , BDRip-AVC] [ ] Dub + Original (eng) + Sub (rus, ukr, eng) Galfimbul 23443146642.18 GB 0 0 1477027710

08:28

21--16

2016-2019 ( ) ··  / The Boss ( / Ben Falcone) [2016, , , BDRip-AVC] [ ] Dub + Sub (rus) Galfimbul 782329363746 MB 0 0 1476165794

09:03

11--16

··  / The Boss ( / Ben Falcone) [2016, , BDRip 720p] Galfimbul 21035255131.96 GB 0 0 1472391460

16:37

28--16

2016-2019 ( ) ··  / The Boss ( / Ben Falcone) [2016, , , BDRip] [Theatrical Cut] Dub + Original Eng + sub Galfimbul 23434364752.18 GB 0 0 1472050693

17:58

24--16

2016 ··  / The Boss ( / Ben Falcone) [2016, , , BDRip 720p] [Theatrical Cut] Dub (Blu-ray CEE) + Original (Eng) + Sub (Rus, Ukr, Eng) Galfimbul 57718688815.38 GB 0 0 1471949584

13:53

23--16

2016 ··  / The Boss ( / Ben Falcone) [2016, , , Blu-ray disc 1080p] [CEE] [Theatrical Cut] Dub + Sub Rus, Eng + Original Eng Galfimbul 4547743115142.35 GB 0 0 1471949411

13:50

23--16

2016-2019 ( ) ··  / The Boss ( / Ben Falcone) [2016, , , BDRip] MVO (iTunes) + Original Eng Galfimbul 15733227521.47 GB 0 0 1468952801

21:26

19--16

2016-2019 ( ) ··  / The Boss ( / Ben Falcone) [2016, , , HDRip] Dub (iTunes) Galfimbul 781630608745 MB 0 0 1468940009

17:53

19--16

2016-2019 ( ) ··  / The Boss ( / Ben Falcone) [2016, , , HDRip] MVO Galfimbul 15645491201.46 GB 0 0 1468695459

21:57

16--16

2016-2019 ( ) ··  / The Boss ( ) [2016, , BDRip 720p] iTunes Galfimbul 54954137575.12 GB 0 0 1468476937

09:15

14--16

2016-2019 ( ) ··  / The Boss ( ) [2016, , HDRip] iTunes Galfimbul 15645491201.46 GB 0 0 1468415640

16:14

13--16

2016-2019 ( ) ··  / The Boss ( ) [2016, , WEB-DL 720p] iTunes Galfimbul 35097452373.27 GB 0 0 1467465303

16:15

2--16

2016-2019 ( ) ··  / The Boss ( ) [2016, , WEB-DLRip] iTunes Galfimbul 15646085121.46 GB 0 0 1467465282

16:14

2--16

2016-2019 ( ) ··  / The Boss ( ) [2016, , WEBRip 720] Galfimbul 27591416222.57 GB 0 0 1463633236

07:47

19--16

2016-2019 ( ) ··  / The Boss ( ) [2016, , WEBRip 1080] Galfimbul 30770066512.87 GB 0 0 1463633232

07:47

19--16

2016-2019 ( ) ··  / The Boss ( ) [2016, , WEBRip] Galfimbul 14679511041.37 GB 0 0 1463629308

06:41

19--16

·%·  / The Big Boss / Tang shan da xiong ( / Wei Lo / - / Chia-Hsiang Wu) [1971, , , , HDRip] AVO ( ) + AVO ( ) + AVO ( ) + AVO ( ) Galfimbul 16956482561.58 GB 0 0 1528884066

13:01

13--18

··  / The Big Boss / Tang shan da xiong ( / Wei Lo / - / Chia-Hsiang Wu) [1971, , , , , , HDRip] [, , , ] AVO ( ) + AVO ( ) Galfimbul 15514071041.44 GB 0 0 1471584202

08:23

19--16

The Boss . !

!