Скачать через торрент Подношение The Offering Фильм бесплатно в хорошем качестве torrent

Скачивайте на UnionPeer.org фильмы через торрент без регистрации. Новинки кино в хорошем качестве через торрент. На UnionPeer.org можно скачать через торрент фильмы 2014 и 2015 годов. Самые новые фильмы.

Скачать торрент Подношение The Offering бесплатно через .torrent фильм мультфильм сериал

Статистика раздачи
Размер:  745 MB   |    Зарегистрирован:  7 лет 7 месяцев   |    .torrent скачан:  169 раз   |   
Раздают:  1  
 

Скачать Подношение / The Offering (Келвин Тонг) [2016, ужасы, триллер, драма, детектив, HDRip] через torrent

 
 
Автор Сообщение

Galfimbul

avatar Galfimbul


Подношение / The Faith of Anna Waters / The Offering

Страна: Сингапур США
Производство: Boku Films, Boku Films Pte Limited, PEP Pictures
Год выпуска: 2016
Жанр: ужасы, триллер, драма, детектив
Продолжительность: 01:35:30

Режиссер: Келвин Тонг
Автор сценария: Келвин Тонг

В ролях: Мэттью Сеттл, Элизабет Райс, Памелин Чи, Кхенг Хуа Тан, Адина Херц, Джейми Онг, Элизабет Лазан, Адриан Пэнг

Описание: Когда Джейми узнает, что её сестра умерла при загадочных обстоятельствах, она уезжает в Сингапур в поисках истины. По прибытии она обнаруживает несколько смертельных случаев, схожих с тем, что случилось с её сестрой...



Перевод: Любительский (многоголосый) | den904, DeadSno, Izanami, Agent Smith
Субтитры: нет
Качество: HDRip
Формат: AVI
Видео кодек: XviD
Аудио кодек: АС3
Видео: 688x288 (2.40:1), 24.000 fps, XviD ~890 kbps avg
Аудио: 48.0 kHz, AC3 Dolby Digital, 2/0 (L,R) ch, ~192 kbps

Дата премьеры (мир): 16 марта 2016

Полное имя : Подношение (ужасы, триллер, драма 2016г).avi
Формат : AVI
Формат/Информация : Audio Video Interleave
Размер файла : 745 Мбайт
Продолжительность : 1 ч. 35 м.
Общий поток : 1091 Кбит/сек
Программа кодирования : VirtualDubMod 1.5.10.3 | (build 2550/release)
Библиотека кодирования : VirtualDubMod build 2550/release

Видео
Идентификатор : 0
Формат : MPEG-4 Visual
Профиль формата : Advanced Simple@L5
Параметр BVOP формата : 2
Параметр QPel формата : Нет
Параметр GMC формата : Без точки перехода
Параметр матрицы формата : Выборочная
Идентификатор кодека : XVID
Идентификатор кодека/Подсказка : XviD
Продолжительность : 1 ч. 35 м.
Битрейт : 890 Кбит/сек
Ширина : 688 пикселей
Высота : 288 пикселей
Соотношение сторон : 2,40:1
Частота кадров : 24,000 кадра/сек
Цветовое пространство : YUV
Субдискретизация насыщенности : 4:2:0
Битовая глубина : 8 бит
Тип развёртки : Прогрессивная
Метод сжатия : С потерями
Бит/(Пиксели*Кадры) : 0.187
Размер потока : 608 Мбайт (82%)
Библиотека кодирования : XviD 1.2.1 (UTC 2008-12-04)

Аудио
Идентификатор : 1
Формат : AC-3
Формат/Информация : Audio Coding 3
Расширение режима : CM (complete main)
Параметр Endianness формата : Big
Идентификатор кодека : 2000
Продолжительность : 1 ч. 35 м.
Вид битрейта : Постоянный
Битрейт : 192 Кбит/сек
Каналы : 2 канала
Расположение каналов : Front: L R
Частота : 48,0 КГц
Частота кадров : 31,250 кадров/сек (1536 spf)
Метод сжатия : С потерями
Размер потока : 131 Мбайт (18%)
Выравнивание : Разделение по промежуткам
Продолжительность промежутка : 42 мс. (1,00 видеокадр)
Время предзагрузки промежутка : 500 мс.


Внимание! AdBlock блокирует показ скриншотов, все вопросы к разработчикам )))

Трекер:  [ 24-Авг-2016 12:30 ]

  

Скачать .torrent

Размер .torrent файла 15 KB


Размер: 745 MB
Хэш (hash) релиза: a4dd650bfffa5908b6bacae6862cb04fa4219f40
Подписка на обновления:

Торренты, похожие на Подношение The Offering скачать торрент

Форум Название Автор Размер S L Добавлен
Зарубежные фильмы 2016-2019 (Новинки зарубежного кино) ·· Подношение / The Offering (Келвин Тонг) [2016, ужасы, триллер, драма, детектив, BDRip 720p] Galfimbul 42734225523.98 GB 0 0 1472033211

13:06

24-Авг-16

Зарубежные фильмы 2016-2019 (Новинки зарубежного кино) ·· Подношение / The Offering (Келвин Тонг) [2016, ужасы, триллер, драма, детектив, WEB-DLRip] Galfimbul 14768312321.38 GB 0 0 1465486976

18:42

9-Июн-16

Зарубежные фильмы 2016-2019 (Новинки зарубежного кино) ·· Подношение / The Offering (Келвин Тонг) [2016, ужасы, триллер, драма, детектив, WEB-DLRip] Galfimbul 14804070401.38 GB 0 0 1462880491

14:41

10-Май-16

Зарубежные фильмы до 2016 ·· Подношение / Вера Анны Уотерс / The Faith of Anna Waters / The Offering (Келвин Тонг / Kelvin Tong) [2016, Сингапур, США, ужасы, триллер, драма, детектив, BDRemux 1080p] MVO + VO + 2x Sub Eng + Original Eng Galfimbul 2407810166022.42 GB 0 0 1472153732

22:35

25-Авг-16

Зарубежные фильмы 2016-2019 (Новинки зарубежного кино) ·· Подношение / Вера Анны Уотерс / The Faith of Anna Waters / The Offering (Келвин Тонг / Kelvin Tong) [2016, Сингапур, США, ужасы, триллер, драма, детектив, WEB-DLRip] MVO (den904, DeadSno, Izanami, Agent Smith) Galfimbul 14768312321.38 GB 0 0 1465565501

16:31

10-Июн-16

Еще никто не оставлял запись к записи скачать торрент Подношение The Offering . Будь первым!

!Обратная связь