Скачать через торрент Трудная мишень 2 Hard Target 2 Фильм бесплатно в хорошем качестве torrent

Скачивайте на UnionPeer.org фильмы через торрент без регистрации. Новинки кино в хорошем качестве через торрент. На UnionPeer.org можно скачать через торрент фильмы 2014 и 2015 годов. Самые новые фильмы.

Скачать торрент Трудная мишень 2 Hard Target 2 бесплатно через .torrent фильм мультфильм сериал

Статистика раздачи
Размер:  1.37 GB   |    Зарегистрирован:  7 лет 9 месяцев   |    .torrent скачан:  364 раза   |   
Раздают:  1  
 

Скачать Трудная мишень 2 / Hard Target 2 (Роэль Рейн) [2016, США, Боевик, триллер, криминал, HDRip] Dub через torrent

 
 
Автор Сообщение

Galfimbul

avatar Galfimbul


Трудная мишень 2 / Hard Target 2

Страна: США
Жанр: Боевик, триллер, криминал
Год выпуска: 2016
Продолжительность: 01:43:33

Перевод: Профессиональный (дублированный) BD CEE
Cубтитры: нет
Режиссер: Роэль Рейн / Roel Reine

В ролях: Скотт Эдкинс, Роберт Неппер, Рона Митра, Темуэра Моррисон, Адам Саундерс, Джэйми Тимони, Питер Харди, Шон Кинэн , Йанин Висмитананда, Дамиан Мевис, Байрон Гибсон, Сахайак Бунсанакит, Антео Квинтавалле, Эйн О’Брайэн, Джеффри Джулиано, Дэвид Асаванонд, Куллет Эрик, Гиги Велиситат, Амарин Чолвибул, Крис Ловенштейн

Описание: Продолжение культового экшн-триллера 1993 года о подпольных игрищах, где проплаченные «охотники» травят, как дичь, похищенных людей. Новой мишенью становится опальный мастер боевых искусств, который соблазнился деньгами, даже не подозревая, на что подписывается. Но и его преследователи еще не знают, с кем связались.

Сэмпл: http://multi-up.com/1115147

Качество видео: HDRip
Формат видео: AVI

Видео: XviD, 720x400, (16:9), 24,000 fps, 1434 Кбит/с, 8 бит
Аудио: Русский (АС3, 6 ch (Front: L C R, Side: L R, LFE), 48,0 KHz, 448 Kbps)
Общее
Полное имя : F:\Видеофильмы\В и д е о\Трудная мишень 2 (боевик Скотт Эдкинс 2016г).avi
Формат : AVI
Формат/Информация : Audio Video Interleave
Размер файла : 1,37 Гбайт
Продолжительность : 1 ч. 43 м.
Общий поток : 1892 Кбит/сек
Программа кодирования : VirtualDubMod 1.5.10.2 (build 2540/release)
Библиотека кодирования : VirtualDubMod build 2540/release

Видео
Идентификатор : 0
Формат : MPEG-4 Visual
Профиль формата : Advanced Simple@L5
Параметр BVOP формата : 2
Параметр QPel формата : Нет
Параметр GMC формата : Без точки перехода
Параметр матрицы формата : Выборочная
Идентификатор кодека : XVID
Идентификатор кодека/Подсказка : XviD
Продолжительность : 1 ч. 43 м.
Битрейт : 1434 Кбит/сек
Ширина : 720 пикселей
Высота : 400 пикселей
Соотношение сторон : 16:9
Частота кадров : 23,976 (24000/1001) кадра/сек
Цветовое пространство : YUV
Субдискретизация насыщенности : 4:2:0
Битовая глубина : 8 бит
Тип развёртки : Прогрессивная
Метод сжатия : С потерями
Бит/(Пиксели*Кадры) : 0.208
Размер потока : 1,04 Гбайт (76%)
Библиотека кодирования : XviD 1.2.1 (UTC 2008-12-04)

Аудио
Идентификатор : 1
Формат : AC-3
Формат/Информация : Audio Coding 3
Расширение режима : CM (complete main)
Параметр Endianness формата : Big
Идентификатор кодека : 2000
Продолжительность : 1 ч. 43 м.
Вид битрейта : Постоянный
Битрейт : 448 Кбит/сек
Каналы : 6 каналов
Расположение каналов : Front: L C R, Side: L R, LFE
Частота : 48,0 КГц
Частота кадров : 31,250 кадров/сек (1536 spf)
Метод сжатия : С потерями
Размер потока : 332 Мбайт (24%)
Выравнивание : Разделение по промежуткам
Продолжительность промежутка : 42 мс. (1,00 видеокадр)
Время предзагрузки промежутка : 500 мс.


Внимание! AdBlock блокирует показ скриншотов, все вопросы к разработчикам )))

Трекер:  [ 26-Авг-2016 11:30 ]

  

Скачать .torrent

Размер .torrent файла 14 KB


Размер: 1.37 GB
Хэш (hash) релиза: a214f3279f413185d5b2aa7cfee88dde46e123a7
Подписка на обновления:

Торренты, похожие на Трудная мишень 2 Hard Target 2 скачать торрент

Форум Название Автор Размер S L Добавлен
Зарубежные фильмы 2016-2019 (Новинки зарубежного кино) ·· Трудная мишень 2 / Hard Target 2 (Роэль Рейн / Roel Reiné) [2016, США, боевик, триллер, BDRip] Dub (EUR) + Original Eng + subs (Rus, Eng) Galfimbul 23424423282.18 GB 0 0 1476479443

00:10

15-Окт-16

Зарубежные фильмы до 2016 ·· Трудная мишень 2 / Hard Target 2 (Роэль Рейн / Roel Reiné) [2016, США, боевик, триллер, BDRip 720p] Dub + Sub Rus, Eng + Original Eng Galfimbul 70702335376.58 GB 0 0 1474126237

18:30

17-Сен-16

Зарубежные фильмы 2016-2019 (Новинки зарубежного кино) ·· Трудная мишень 2 / Hard Target 2 (Роэль Рейн / Roel Reine) [2016, США, боевик, триллер, криминал, BDRip-AVC] Dub + Original + Sub (rus, eng) Galfimbul 37431989633.49 GB 0 0 1473172629

17:37

6-Сен-16

Зарубежные фильмы до 2016 ·· Трудная мишень 2 / Hard Target 2 (Роэль Рейн / Roel Reiné (Roel Reine)) [2016, США, боевик, триллер, BDRip 720p] Dub (BD CEE) + Original Eng Galfimbul 73431124416.84 GB 0 0 1472646022

15:20

31-Авг-16

Зарубежные фильмы до 2016 ·· Трудная мишень 2 / Hard Target 2 (Роэль Рейн / Roel Reiné) [2016, США, боевик, триллер, BDRip 1080p] Dub + Sub Rus, Eng + Original Eng Galfimbul 1899574040417.69 GB 0 0 1472590361

23:52

30-Авг-16

Зарубежные фильмы 2016-2019 (Новинки зарубежного кино) ·· Трудная мишень 2 / Hard Target 2 (Роэль Рейн / Roel Reine) [2016, США, боевик, триллер, криминал, HDRip] Dub + Original + Sub (rus,eng) Galfimbul 22861112732.13 GB 0 0 1472539170

09:39

30-Авг-16

Зарубежные фильмы 2016-2019 (Новинки зарубежного кино) ·· Трудная Мишень 2 / Hard Target 2 (Роэль Рейн / Roel Reiné) [2016, Боевик | Триллер, Blu-Ray CEE] Лицензия Galfimbul 4354598635840.56 GB 0 0 1472416936

23:42

28-Авг-16

Зарубежные фильмы 2016-2019 (Новинки зарубежного кино) ·· Трудная мишень 2 / Hard Target 2 (Роэль Рейн / Roel Reiné) [2016, США, боевик, триллер, BDRip 720p] Лицензия Galfimbul 46963532394.37 GB 0 0 1472404496

20:14

28-Авг-16

Трейлеры и дополнительные материалы ·· Трудная Мишень 2 / Hard Target 2 (Роэль Рейн / Roel Reiné) [2016, Боевик | Триллер, BDRip 720p] дополнительные материалы Galfimbul 785466243749 MB 0 0 1472394010

17:20

28-Авг-16

Зарубежные фильмы до 2016 ·· Трудная мишень 2 / Hard Target 2 (Роэль Рейн / Roel Reiné) [2016, США, боевик, триллер, Blu-ray disc 1080p] [CEE] Dub + Sub Rus, Eng + Original Eng Galfimbul 4354598635840.56 GB 0 0 1472391605

16:40

28-Авг-16

Зарубежные фильмы 2016-2019 (Новинки зарубежного кино) ·· Трудная мишень 2 / Hard Target 2 (Роэль Рейн / Roel Reine) [2016, США, боевик, триллер, HDRip] Dub Galfimbul 781318144745 MB 0 0 1472203542

12:25

26-Авг-16

Зарубежные фильмы 2016-2019 (Новинки зарубежного кино) ·· Трудная мишень 2 / Hard Target 2 (Роэль Рейн) [2016, боевик, триллер, BDRip 720p] Лицензия Galfimbul 73431080526.84 GB 0 0 1472186441

07:40

26-Авг-16

Еще никто не оставлял запись к записи скачать торрент Трудная мишень 2 Hard Target 2 . Будь первым!

!Обратная связь