Скачать через торрент По следу Skiptrace Фильм бесплатно в хорошем качестве torrent

Скачивайте на UnionPeer.org фильмы через торрент без регистрации. Новинки кино в хорошем качестве через торрент. На UnionPeer.org можно скачать через торрент фильмы 2014 и 2015 годов. Самые новые фильмы.

Скачать торрент По следу Skiptrace бесплатно через .torrent фильм мультфильм сериал

Статистика раздачи
Размер:  1.46 GB   |    Зарегистрирован:  7 лет 8 месяцев   |    .torrent скачан:  547 раз   |   
Раздают:  1  
 

Скачать По следу / Skiptrace (Ренни Харлин) [2016, боевик, комедия, TC] через torrent

 
 
Автор Сообщение

Galfimbul

avatar Galfimbul


По следу / Skiptrace

Страна: Гонконг США Китай
Производство: Cider Mill Pictures, Dasym Enetertainment, InterTitle Films, JC Group International, Talent International Media
Год выпуска: 2016
Жанр: боевик, комедия
Продолжительность: 01:52:02

Режиссер: Ренни Харлин
Автор сценария: Джей Лонгино, БенДэвид Грабински

В ролях: Джеки Чан, Джонни Ноксвил, Бинбин Фань, Эрик Цан, Ив Торрес, Уинстон Чао, Ланьсинь Чжан, Майкл Вонг, Джоэль Адриан, Пьер Бурдо

Описание: Племянница честного полицейского попадает в неприятности и оказывается в руках у преступного синдиката. Во главе преступной группировки стоит человек, за которым протагонист следил около десяти лет. Чтобы спасти родственницу, копу приходится поймать болтливого американского игрока, с чьей помощью он может выручить девушку...



Перевод: Любительский (многоголосый, закадровый)
Субтитры: вшитые (английские + китайские)
Качество: Telecine
Формат: АVI
Видео кодек: XviD
Аудио кодек: АС3
Видео: 720x320 (2.25:1), 25.000fps, XviD ~1 660 kbps avg
Аудио: 48.0 kHz, AC3 Dolby Digital, 2/0 (L,R) ch, ~192 kbps

Дата премьеры (мир): 21 июля 2016

ПРИМЕЧАНИЕ: ПРИСУТСТВУЕТ РЕКЛАМА!
General
Общее
Полное имя : Skiptrace.2016.MVO.Telecine.14OOMB_KOSHARA.avi
Формат : AVI
Формат/Информация : Audio Video Interleave
Размер файла : 1,46 Гбайт
Продолжительность : 1 ч. 52 м.
Общий поток : 1862 Кбит/сек
Программа кодирования : VirtualDubMod 1.5.10.2 (build 2540/release)
Библиотека кодирования : VirtualDubMod build 2540/release

Видео
Идентификатор : 0
Формат : MPEG-4 Visual
Профиль формата : Advanced Simple@L5
Параметр BVOP формата : Да
Параметр QPel формата : Нет
Параметр GMC формата : Без точки перехода
Параметр матрицы формата : Выборочная
Идентификатор кодека : XVID
Идентификатор кодека/Подсказка : XviD
Продолжительность : 1 ч. 52 м.
Битрейт : 1660 Кбит/сек
Ширина : 720 пикселей
Высота : 320 пикселей
Соотношение сторон : 2,25:1
Частота кадров : 25,000 кадров/сек
Цветовое пространство : YUV
Субдискретизация насыщенности : 4:2:0
Битовая глубина : 8 бит
Тип развёртки : Прогрессивная
Метод сжатия : С потерями
Бит/(Пиксели*Кадры) : 0.288
Размер потока : 1,30 Гбайт (89%)
Библиотека кодирования : XviD 1.2.1 (UTC 2008-12-04)

Аудио
Идентификатор : 1
Формат : AC-3
Формат/Информация : Audio Coding 3
Расширение режима : CM (complete main)
Параметр Endianness формата : Big
Идентификатор кодека : 2000
Продолжительность : 1 ч. 52 м.
Вид битрейта : Постоянный
Битрейт : 192 Кбит/сек
Каналы : 2 канала
Расположение каналов : Front: L R
Частота : 48,0 КГц
Частота кадров : 31,250 кадров/сек (1536 spf)
Метод сжатия : С потерями
Размер потока : 154 Мбайт (10%)
Выравнивание : Разделение по промежуткам
Продолжительность промежутка : 40 мс. (1,00 видеокадр)
Время предзагрузки промежутка : 500 мс.


Внимание! AdBlock блокирует показ скриншотов, все вопросы к разработчикам )))

Трекер:  [ 27-Авг-2016 10:30 ]

  

Скачать .torrent

Размер .torrent файла 15 KB


Размер: 1.46 GB
Хэш (hash) релиза: c77a34074444f160bff725ccef9a02fa131fdf08
Подписка на обновления:

Торренты, похожие на По следу Skiptrace скачать торрент

Форум Название Автор Размер S L Добавлен
Зарубежные фильмы 2016-2019 (Новинки зарубежного кино) ·%· Отпетые напарники / По следу / Skiptrace (2015) BDRip-HEVC 1080p | D, P | iTunes Galfimbul 71124043386.62 GB 0 0 1561474242

17:50

25-Июн-19

Зарубежные фильмы 2016-2019 (Новинки зарубежного кино) ·· Отпетые напарники / По следу / Skiptrace (Ренни Харлин) [2016, Боевик, Комедия, BDRemux 1080p] iTunes Galfimbul 1923946326417.92 GB 0 0 1489101115

02:11

10-Мар-17

Азиатские фильмы ·· Отпетые напарники / По следу / Skiptrace / Jue di tao wang (Ренни Харлин / Renny Harlin) [2016, Китай, Гонконг, США, боевик, комедия, приключения, BDRip 720p] Dub (iTunes) + Sub Eng + Original Eng Galfimbul 66770448966.22 GB 0 0 1488749463

00:31

6-Мар-17

Азиатские фильмы ·· Отпетые напарники / По следу / Skiptrace (Ренни Харлин / Renny Harlin) [2016, Китай, Гонконг, США, боевик, комедия, приключения HDRip] Dub (iTunes) Galfimbul 15159757721.41 GB 0 0 1488567654

22:00

3-Мар-17

Зарубежные фильмы 2016-2019 (Новинки зарубежного кино) ·· По следу / Skiptrace (Ренни Харлин) [2016, боевик, комедия, BDRip 720p] Galfimbul 83060634037.74 GB 0 0 1476243683

06:41

12-Окт-16

Азиатские фильмы ·· По следу / Skiptrace (Ренни Харлин / Renny Harlin) [2016, США, Китай, Гонконг, Боевик, комедия, WEB-DLRip] MVO (Студия "Paradox" & Omskbird records) Galfimbul 783056896747 MB 0 0 1475212714

08:18

30-Сен-16

Азиатские фильмы ·· По следу / Skiptrace (Ренни Харлин / Renny Harlin) [2016, Гонконг, США, Китай, боевик, комедия, WEB-DLRip] MVO (СПД) + Original + Sub (Eng) Galfimbul 18774080001.75 GB 0 0 1473262106

18:28

7-Сен-16

Зарубежные фильмы 2016-2019 (Новинки зарубежного кино) ·· По следу / Skiptrace (Ренни Харлин) [2016, боевик, комедия, WEB-DLRip] Galfimbul 22012754582.05 GB 0 0 1473161937

14:38

6-Сен-16

Зарубежные фильмы 2016-2019 (Новинки зарубежного кино) ·· По следу / Skiptrace (Ренни Харлин) [2016, боевик, комедия, WEB-DL 1080p] Galfimbul 42817865283.99 GB 0 0 1473035986

03:39

5-Сен-16

Зарубежные фильмы 2016-2019 (Новинки зарубежного кино) ·· По следу / Skiptrace (Ренни Харлин) [2016, боевик, комедия, WEB-DL 720p] Galfimbul 36829050513.43 GB 0 0 1473035982

03:39

5-Сен-16

Зарубежные фильмы 2016-2019 (Новинки зарубежного кино) ·· По следу / Skiptrace (Ренни Харлин) [2016, боевик, комедия, WEB-DLRip] Galfimbul 14677667841.37 GB 0 0 1472982451

12:47

4-Сен-16

Зарубежные фильмы 2016-2019 (Новинки зарубежного кино) ·T· По следу / Skiptrace (Ренни Харлин) [2016 г., боевик, комедия, TC 1080p] MVO Galfimbul 29024493862.7 GB 0 0 1472278320

09:12

27-Авг-16

Еще никто не оставлял запись к записи скачать торрент По следу Skiptrace . Будь первым!

!Обратная связь