Скачать через торрент По следу Skiptrace Фильм бесплатно в хорошем качестве torrent

Скачивайте на UnionPeer.org фильмы через торрент без регистрации. Новинки кино в хорошем качестве через торрент. На UnionPeer.org можно скачать через торрент фильмы 2014 и 2015 годов. Самые новые фильмы.

Скачать торрент По следу Skiptrace бесплатно через .torrent фильм мультфильм сериал

Статистика раздачи
Размер:  1.75 GB   |    Зарегистрирован:  7 лет 5 месяцев   |    .torrent скачан:  81 раз   |   
Раздают:  1  
 

Скачать По следу / Skiptrace (Ренни Харлин / Renny Harlin) [2016, Гонконг, США, Китай, боевик, комедия, WEB-DLRip] MVO (СПД) + Original + Sub (Eng) через torrent

 
 
Автор Сообщение

Galfimbul

avatar Galfimbul


<span class="post-font-serif1">По следу / Skiptrace«Watch your backup»
Страна: Гонконг, США, Китай
Жанр: боевик, комедия
Год выпуска: 2016
Продолжительность: 01:47:42
<span class="post-font-serif1">Перевод: Любительский (многоголосый закадровый)
Cубтитры: Английские (полные)
Оригинальная аудиодорожка: Английский

Режиссер: Ренни Харлин / Renny Harlin

В ролях: Джеки Чан, Джонни Ноксвилл, Бинбин Фань, Эрик Цан, Ив Торрес, Уинстон Чао, Ланьсинь Чжан, Майкл Вонг, Джоэль Адриан, Пьер Бурдо

Описание: Племянница честного полицейского попадает в неприятности и оказывается в руках у преступного синдиката. Во главе преступной группировки стоит человек, за которым протагонист следил около десяти лет. Чтобы спасти родственницу, копу приходится поймать болтливого американского игрока, с чьей помощью он может выручить девушку.

Сэмпл: http://multi-up.com/1116652

Качество видео: WEB-DLRip
Исходник: Skiptrace.2016.1080p.WEB-DL.x264 kinozal
Формат видео: AVI

Видео: 704x272 (2.59:1), 23.976 fps, XviD build 65 ~1679 kbps avg, 0.37 bit/pixel
Аудио [b]RUS[/b]: 48 kHz, AC3 Dolby Digital, 2/0 (L,R) ch, ~192 kbps
Аудио [b]ENG[/b]: 48 kHz, AC3 Dolby Digital, 3/2 (L,C,R,l,r) + LFE ch, ~384 kbps
Формат субтитров: softsub (SRT)

</span></span>
<span class="post-font-serif1">Rip by Ториял для </span>
Format : AVI
Format/Info : Audio Video Interleave
File size : 1.46 GiB
Duration : 1h 47mn
Overall bit rate : 1 940 Kbps
Writing application : VirtualDubMod 1.5.10.3 | www.virtualdub-fr.org || (build 2550/release)
Writing library : VirtualDubMod build 2550/release

Video
ID : 0
Format : MPEG-4 Visual
Format profile : Advanced Simple@L5
Format settings, BVOP : 1
Format settings, QPel : No
Format settings, GMC : No warppoints
Format settings, Matrix : Custom
Codec ID : XVID
Codec ID/Hint : XviD
Duration : 1h 47mn
Bit rate : 1 739 Kbps
Width : 720 pixels
Height : 304 pixels
Display aspect ratio : 2.35:1
Frame rate : 23.976 (23976/1000) fps
Color space : YUV
Chroma subsampling : 4:2:0
Bit depth : 8 bits
Scan type : Progressive
Compression mode : Lossy
Bits/(Pixel*Frame) : 0.331
Stream size : 1.31 GiB (90%)
Writing library : XviD 65

Audio
ID : 1
Format : AC-3
Format/Info : Audio Coding 3
Mode extension : CM (complete main)
Format settings, Endianness : Big
Codec ID : 2000
Duration : 1h 47mn
Bit rate mode : Constant
Bit rate : 192 Kbps
Channel(s) : 2 channels
Channel positions : Front: L R
Sampling rate : 48.0 KHz
Frame rate : 31.250 fps (1536 spf)
Compression mode : Lossy
Stream size : 148 MiB (10%)
Alignment : Split accross interleaves
Interleave, duration : 42 ms (1.00 video frame)
Interleave, preload duratio : 500 ms


Внимание! AdBlock блокирует показ скриншотов, все вопросы к разработчикам )))
Трекер:  [ 07-Сен-2016 17:30 ]

  

Скачать .torrent

Размер .torrent файла 18 KB


Размер: 1.75 GB
Хэш (hash) релиза: 2bfed348c7f33759fb3d75c6df76cae4f59727f2
Подписка на обновления:

Торренты, похожие на По следу Skiptrace скачать торрент

Форум Название Автор Размер S L Добавлен
Зарубежные фильмы 2016-2019 (Новинки зарубежного кино) ·%· Отпетые напарники / По следу / Skiptrace (2015) BDRip-HEVC 1080p | D, P | iTunes Galfimbul 71124043386.62 GB 0 0 1561474242

17:50

25-Июн-19

Зарубежные фильмы 2016-2019 (Новинки зарубежного кино) ·· Отпетые напарники / По следу / Skiptrace (Ренни Харлин) [2016, Боевик, Комедия, BDRemux 1080p] iTunes Galfimbul 1923946326417.92 GB 0 0 1489101115

02:11

10-Мар-17

Азиатские фильмы ·· Отпетые напарники / По следу / Skiptrace / Jue di tao wang (Ренни Харлин / Renny Harlin) [2016, Китай, Гонконг, США, боевик, комедия, приключения, BDRip 720p] Dub (iTunes) + Sub Eng + Original Eng Galfimbul 66770448966.22 GB 0 0 1488749463

00:31

6-Мар-17

Азиатские фильмы ·· Отпетые напарники / По следу / Skiptrace (Ренни Харлин / Renny Harlin) [2016, Китай, Гонконг, США, боевик, комедия, приключения HDRip] Dub (iTunes) Galfimbul 15159757721.41 GB 0 0 1488567654

22:00

3-Мар-17

Зарубежные фильмы 2016-2019 (Новинки зарубежного кино) ·· По следу / Skiptrace (Ренни Харлин) [2016, боевик, комедия, BDRip 720p] Galfimbul 83060634037.74 GB 0 0 1476243683

06:41

12-Окт-16

Азиатские фильмы ·· По следу / Skiptrace (Ренни Харлин / Renny Harlin) [2016, США, Китай, Гонконг, Боевик, комедия, WEB-DLRip] MVO (Студия "Paradox" & Omskbird records) Galfimbul 783056896747 MB 0 0 1475212714

08:18

30-Сен-16

Зарубежные фильмы 2016-2019 (Новинки зарубежного кино) ·· По следу / Skiptrace (Ренни Харлин) [2016, боевик, комедия, WEB-DLRip] Galfimbul 22012754582.05 GB 0 0 1473161937

14:38

6-Сен-16

Зарубежные фильмы 2016-2019 (Новинки зарубежного кино) ·· По следу / Skiptrace (Ренни Харлин) [2016, боевик, комедия, WEB-DL 1080p] Galfimbul 42817865283.99 GB 0 0 1473035986

03:39

5-Сен-16

Зарубежные фильмы 2016-2019 (Новинки зарубежного кино) ·· По следу / Skiptrace (Ренни Харлин) [2016, боевик, комедия, WEB-DL 720p] Galfimbul 36829050513.43 GB 0 0 1473035982

03:39

5-Сен-16

Зарубежные фильмы 2016-2019 (Новинки зарубежного кино) ·· По следу / Skiptrace (Ренни Харлин) [2016, боевик, комедия, WEB-DLRip] Galfimbul 14677667841.37 GB 0 0 1472982451

12:47

4-Сен-16

Зарубежные фильмы 2016-2019 (Новинки зарубежного кино) ·· По следу / Skiptrace (Ренни Харлин) [2016, боевик, комедия, TC] Galfimbul 15641579521.46 GB 0 0 1472283953

10:45

27-Авг-16

Зарубежные фильмы 2016-2019 (Новинки зарубежного кино) ·T· По следу / Skiptrace (Ренни Харлин) [2016 г., боевик, комедия, TC 1080p] MVO Galfimbul 29024493862.7 GB 0 0 1472278320

09:12

27-Авг-16

Еще никто не оставлял запись к записи скачать торрент По следу Skiptrace . Будь первым!

!Обратная связь