Скачать через торрент Герника Gernika Фильм бесплатно в хорошем качестве torrent

Скачивайте на UnionPeer.org фильмы через торрент без регистрации. Новинки кино в хорошем качестве через торрент. На UnionPeer.org можно скачать через торрент фильмы 2014 и 2015 годов. Самые новые фильмы.

Скачать торрент Герника Gernika бесплатно через .torrent фильм мультфильм сериал

Статистика раздачи
Размер:  745 MB   |    Зарегистрирован:  7 лет 5 месяцев   |    .torrent скачан:  41 раз   |   
Раздают:  1  
 

Скачать Герника / Gernika (Кольдо Серра / Koldo Serra) [2015, Испания, военный, драма, WEB-DLRip] MVO через torrent

 
 
Автор Сообщение

Galfimbul

avatar Galfimbul


<span class="post-font-serif1">Герника / Gernika

Страна: Испания
Студия: Anima Pictures, Gernika The Movie
Жанр: военный, драма
Год выпуска: 2015
Продолжительность: 01:50:38

Перевод: Профессиональный (многоголосый, закадровый) (звук с DVD)
Cубтитры: нет
Режиссер: Кольдо Серра / Koldo Serra

В ролях: Берн Горман, Джеймс Д’Арси, Джек Девенпорт, Мария Вальверде, Уго Сильва, Ирена Эсколар, Ингрид Гарсия Йонсон, Йоахим Пауль Ассбёк, Алехандро Гарсия, Барбара Гоэнага.

Описание: Романтическая драма о разочарованном и циничном американском журналисте, который оказывается единственным «вестником правды» из испанского города Герника, где зверствует гражданская война. В его работу и дальнейшую судьбу вмешивается местная республиканка Тереза, ответственная за цензуру исходящих новостей…


Сэмпл
<span class="post-font-serif1">Релиз от Megapeer

Качество видео: WEB-DLRip (Исх. Gernika.2016.WEB-DL.1080p)
Формат видео: AVI

Видео: 688x288 (2.39:1), 23.976 fps, XviD build 73 ~807 kbps avg, 0.17 bit/pixel
Аудио: 48 kHz, MPEG Layer 3, 2 ch, ~128.00 kbps avg</span></span>
ОбщееПолное имя : D:\Gernika.2016.WEB-DLRip.745MB.P.MegaPeer.aviФормат : AVIФормат/Информация : Audio Video InterleaveРазмер файла : 745 МбайтПродолжительность : 1 ч. 50 м.Общий поток : 941 Кбит/сек

ВидеоИдентификатор : 0Формат : MPEG-4 VisualПрофиль формата : Advanced Simple@L5Параметр BVOP формата : 1Параметр QPel формата : НетПараметр GMC формата : Без точки переходаПараметр матрицы формата : ВыборочнаяИдентификатор кодека : XVIDИдентификатор кодека/Подсказка : XviDПродолжительность : 1 ч. 50 м.Битрейт : 807 Кбит/секШирина : 688 пикселейВысота : 288 пикселейСоотношение сторон : 2,40:1Частота кадров : 23,976 (24000/1001) кадра/секЦветовое пространство : YUVСубдискретизация насыщенности : 4:2:0Битовая глубина : 8 битТип развёртки : ПрогрессивнаяМетод сжатия : С потерямиБит/(Пиксели*Кадры) : 0.170Размер потока : 639 Мбайт (86%)Библиотека кодирования : XviD 73

АудиоИдентификатор : 1Формат : MPEG AudioВерсия формата : Version 1Профиль формата : Layer 3Режим : Joint stereoРасширение режима : MS StereoИдентификатор кодека : 55Идентификатор кодека/Подсказка : MP3Продолжительность : 1 ч. 50 м.Вид битрейта : ПостоянныйБитрейт : 128 Кбит/секКаналы : 2 каналаЧастота : 48,0 КГцМетод сжатия : С потерямиРазмер потока : 101 Мбайт (14%)Выравнивание : Соединение по промежуткамПродолжительность промежутка : 167 мс. (4,00 видеокадра)Время предзагрузки промежутка : 216 мс.Заголовок : PБиблиотека кодирования : LAME3.99rНастройки программы : -m j -V 4 -q 2 -lowpass 17 -b 128


Внимание! AdBlock блокирует показ скриншотов, все вопросы к разработчикам )))
Трекер:  [ 08-Сен-2016 22:00 ]

  

Скачать .torrent

Размер .torrent файла 15 KB


Размер: 745 MB
Хэш (hash) релиза: 7060c1519a109921278e4c382176cef3507824d8
Подписка на обновления:

Торренты, похожие на Герника Gernika скачать торрент

Форум Название Автор Размер S L Добавлен
Зарубежные фильмы до 2016 ·· Герника / Gernika (Кольдо Серра / Koldo Serra) [2016, Испания, мелодрама, военный, BDRip 720p] MVO (DVD R2) + Sub Rus, Eng + Original Eng Galfimbul 73541975006.85 GB 0 0 1485105012

20:10

22-Янв-17

Зарубежные фильмы 2016-2019 (Новинки зарубежного кино) ·· Герника / Gernika (Кольдо Серра) [2016, мелодрама, военный, BDRip 1080p] Лицензия Galfimbul 85167085777.93 GB 0 0 1484732644

12:44

18-Янв-17

Зарубежные фильмы 2016-2019 (Новинки зарубежного кино) ·· Герника / Gernika (Кольдо Серра) [2016, мелодрама, военный, HDRip] Лицензия Galfimbul 14673100801.37 GB 0 0 1484403214

17:13

14-Янв-17

Зарубежные фильмы 2016-2019 (Новинки зарубежного кино) ·· Герника / Gernika (Кольдо Серра) [2016, мелодрама, военный, HDRip] Лицензия Galfimbul 22055137282.05 GB 0 0 1484403210

17:13

14-Янв-17

Зарубежные фильмы 2016-2019 (Новинки зарубежного кино) ·· Герника / Gernika (Кольдо Серра) [2016, мелодрама, военный, BDRip 720p] Лицензия Galfimbul 59315381465.52 GB 0 0 1484403205

17:13

14-Янв-17

Зарубежные фильмы до 2016 ·· Герника / Gernika (Кольдо Серра / Koldo Serra) [2015, Испания, военный, драма, WEB-DLRip] MVO Galfimbul 15682129921.46 GB 0 0 1473364238

22:50

8-Сен-16

Зарубежные фильмы 2016-2019 (Новинки зарубежного кино) ·· Герника / Gernika (Кольдо Серра) [2016, мелодрама, военный, WEB-DLRip] Galfimbul 22069684002.06 GB 0 0 1473327661

12:41

8-Сен-16

Зарубежные фильмы 2016-2019 (Новинки зарубежного кино) ·· Герника / Gernika (Кольдо Серра / Koldo Serra) [2016, Испания, военный, драма, WEB-DL 1080p] Galfimbul 44119022914.11 GB 0 0 1473190862

22:41

6-Сен-16

Зарубежные фильмы до 2016 ·· Герника / Gernika (Кольдо Серра / Koldo Serra) [2016, Испания, военный, драма, DVD9] MVO + Sub Eng Galfimbul 62327152645.8 GB 0 0 1473142719

09:18

6-Сен-16

Зарубежные фильмы 2016-2019 (Новинки зарубежного кино) ·· Герника / Gernika (Кольдо Серра) [2016, мелодрама, военный, WEB-DL 1080p] Galfimbul 39112053513.64 GB 0 0 1470458572

07:42

6-Авг-16

Зарубежные фильмы 2016-2019 (Новинки зарубежного кино) ·· Герника / Gernika (Кольдо Серра) [2016, мелодрама, военный, WEB-DL 720p] Galfimbul 36182395553.37 GB 0 0 1470458568

07:42

6-Авг-16

Зарубежные фильмы 2016-2019 (Новинки зарубежного кино) ·· Герника / Gernika (Кольдо Серра) [2016, мелодрама, военный, WEB-DLRip] Galfimbul 15643566081.46 GB 0 0 1470426944

22:55

5-Авг-16

Зарубежные фильмы 2016-2019 (Новинки зарубежного кино) ·· Герника / Gernika (Кольдо Серра) [2016, мелодрама, военный, WEB-DL 1080p] Galfimbul 39150899763.65 GB 0 0 1470285889

07:44

4-Авг-16

Зарубежные фильмы 2016-2019 (Новинки зарубежного кино) ·· Герника / Gernika (Кольдо Серра) [2016, мелодрама, военный, WEB-DLRip] Galfimbul 15646699521.46 GB 0 0 1470283977

07:12

4-Авг-16

Зарубежные фильмы 2016-2019 (Новинки зарубежного кино) ·· Герника / Gernika (Кольдо Серра) [2016, мелодрама, военный, WEB-DL 720p] Galfimbul 36241988993.38 GB 0 0 1470283973

07:12

4-Авг-16

Еще никто не оставлял запись к записи скачать торрент Герника Gernika . Будь первым!

!Обратная связь