Скачать через торрент Молчание Лорны Le silence de Lorna Фильм бесплатно в хорошем качестве torrent

Скачивайте на UnionPeer.org фильмы через торрент без регистрации. Новинки кино в хорошем качестве через торрент. На UnionPeer.org можно скачать через торрент фильмы 2014 и 2015 годов. Самые новые фильмы.

Скачать торрент Молчание Лорны Le silence de Lorna бесплатно через .torrent фильм мультфильм сериал

Статистика раздачи
Размер:  7.88 GB   |    Зарегистрирован:  7 лет 5 месяцев   |    .torrent скачан:  41 раз   |   
Раздают:  1  
   
 
Автор Сообщение

Galfimbul

avatar Galfimbul


<span class="post-font-serif1">Молчание Лорны / Le silence de Lorna / Lorna's Silence / Blaq Out</span>
<span class="post-font-serif1">Страна:Бельгия, Франция, Италия, ГерманияСтудия:<span class="post-font-serif1"><span class="post-font-serif1">Archipel 35, arte France Cinéma, Canal+ [fr], Centre du Cinéma et de l'Audiovisuel de la Communauté Française de Belgique, Centre National de la Cinématographie (CNC), Ciné Cinémas, Eurimages, Gemini Film, i2i Media Programme, Le Tax Shelter du Gouvernement Fédéral de Belgique, Les Films du Fleuve, Lucky Red, Mogador Film, Programme MEDIA de la Communauté Européenne, Région Wallone, Radio Télévision Belge Francofone (RTBF), Soficinéma 3, Télédistributeurs Wallons, Tax Shelter ING Invest de Tax Shelter Productions, WDR / Arte.</span></span>Жанр:ДрамаГод выпуска:2008
Продолжительность:01:40:58Производство:Blaq OutПеревод 1:Профессиональный (двухголосый закадровый)Перевод 2:Профессиональный (двухголосый закадровый)Cубтитры:Английские, Нидерландские, Французские, РусскиеОригинальная аудио дорожка:Французский
Премьера (мир):19.05.2008
Режиссер:<span class="post-font-serif1">Жан-Пьер Дарденн, Люк Дарденн / Jean-Pierre Dardenne, Luc Dardenne</span>В ролях:<span class="post-font-serif1">Арта Доброши — Лорна
Жереми Ренье — Клоди Моро
Фабрицио Ронгионе — Фабио
Албан Укай — Сокол
Морган Маренн — Спиру
Оливье Гурме — инспектор
Антон Яковлев — Андрей
Григорий Мануков — Костя
Мирей Байи — Моник Собель
</span></span>Описание:<span class="post-font-serif1">У молодой албанки Лорны две мечты: получить бельгийское гражданство и открыть собственную закусочную. Посодействовать ей и в том, и в другом вызывается мошенник Фабио; он помогает Лорне вступить в фиктивный брак с бельгийским наркоманом Клоди и обещает, что снова выдаст ее замуж, если только она сможет очень быстро получить развод. Однако, к неудовольствию Фабио, Клоди не дает для этого повода. Он не издевается над своей женой и не избивает ее, поэтому о быстром разводе не может быть и речи. А тут еще объявляется новый жених - русский бандит; ему тоже не терпится поскорее стать бельгийским гражданином, и он готов хорошо заплатить за это. Падкий на деньги, Фабио решает убрать Клоди, но его останавливает тревожная мысль: а может ли он быть уверенным в том, что Лорна будет молчать?</span> Доп. информация:<span class="post-font-serif1">Оригинальный DVD предоставил edus67.Профессиональный (двухголосый закадровый)-1взят из раздачи DragonflyLif-<a href="viewtopic.php?t=3395778" class="postLink">...3395778</a>.Звук изначально был дутый . Сделал Даунмикс Стерео.Профессиональный (двухголосый закадровый)-2 и русские субтитрывзяты из раздачи Petrogen-<a href="viewtopic.php?t=3216935" class="postLink">...3216935</a>. Меню неотредактировано, переключение звуковых дорожек с пульта. Огромное <span class="post-font-serif1">Спасибо Всем, без чьей помощи этот релиз не состоялся бы!Сценарий:<span class="post-font-serif1">Жан-Пьер Дарденн, Люк Дарденн</span>Продюсер:<span class="post-font-serif1">Жан-Пьер Дарденн, Люк Дарденн, Дэнис Фрейд</span>Оператор:<span class="post-font-serif1">Ален Маркоэн</span>Художник:<span class="post-font-serif1">Игорь Гэбриел, Моник Парелл</span>Монтаж:<span class="post-font-serif1">Мари-Элен Дозо</span></span></span>
Братья Дарденн-<a href="https://ru.wikipedia.org/wiki/Братья_Дарденн" class="postLink">https://ru.wikipedia.org/wiki/Братья_Дарденн</a>
[b]Фильм
-<a href="https://ru.wikipedia.org/wiki/Молчание_Лорны" class="postLink">https://ru.wikipedia.org/wiki/Молчание_Лорны</a>[/b]
<span class="post-font-serif1"><span class="post-font-serif1">PgcDemux 1.2.0.5 - разделение компонентов диска на файлы.
BeHappy + BeLight - AC3 -> Wav.
Sound Forge pro 10 - синхронизация звука
Subtitle Workshop, MaestroSBT, SubtitleCreator, DVD SubEdit (субтитры).
MuxMan DVD authoring Professional 0.16.8 - мультиплексирование и авторинг.
DVDRemake Pro 3.6.4 - реавторинг DVD.
DVD Shrink 3.2 - Сэмпл.
</span>

<span class="post-font-serif1">Точка перехода.</span> </span>
Без перевода)"><span class="post-font-serif1">. Interview with Luc and Jean-Pierre Dardenne.
. Trailer.
</span>
Меню:<span class="post-font-serif1">Французский, Нидерландский, Английский, анимированное, озвученное.Сэмпл:https://www.sendspace.com/file/b85546Тип релиза:<span class="post-font-serif1">DVD9 (Custom)
Контейнер:<span class="post-font-serif1">DVD-Video</span>
Видео:<span class="post-font-serif1">PAL 16:9 (720x576) VBR, Auto Letterboxed, 7085 Кбит/сек, 25,000 кадров/сек</span>Аудио 1:<span class="post-font-serif1">Французский:AC3, 2 ch, 48.0 KHz, 192 Кбит/сек / (Оригинал)</span>Аудио 2:<span class="post-font-serif1">Французский:AC3, 6 ch, 48.0 KHz, 448 Кбит/сек</span> Аудио 3:<span class="post-font-serif1">Французский:AC3, 2 ch, 48.0 KHz, 192 Кбит/сек / Комментарий</span></span>Аудио 4:<span class="post-font-serif1">Русский:AC3, 2 ch, 48.0 KHz, 192Кбит/сек / Профессиональный (Двухголосый закадровый)</span> Аудио 5:<span class="post-font-serif1">Русский:AC3, 6 ch, 48.0 KHz, 384 Кбит/сек / Профессиональный (Двухголосый закадровый)</span></span> <span class="post-font-serif1">Формат субтитров:prerendered (DVD/IDX+SUB)</span>
<span class="post-font-serif1">Title: Le silence de Lorna DVD-9_Custom
Size: 7.88 Gb ( 8 257 660,00 KBytes ) - DVD-9
Enabled regions: 1, 2, 3, 4, 5, 6, 7, 8

VTS_02 :
Play Length: 00:00:31+00:00:33+00:00:28
Video: PAL 16:9 (720x576) VBR, Auto Letterboxed
Audio:
English (Dolby AC3, 6 ch)

VTS_03 :
Play Length: 00:36:54
Video: PAL 16:9 (720x576) VBR, Auto Letterboxed
Audio:
Francais (Dolby AC3, 2 ch)
Subtitles:
Nederlands
English

VTS_04 :
Play Length: 00:01:27
Video: PAL 16:9 (720x576) VBR, Auto Letterboxed
Audio:
Francais (Dolby AC3, 2 ch)
Subtitles:
Nederlands

</span></span>
[b]<span class="post-font-serif1">Общее
Полное имя : F:\Le silence de Lorna DVD-9_Custom\VIDEO_TS\VTS_01_3.VOB
Формат : MPEG-PS
Размер файла : 1024 Мбайт
Продолжительность : 16 м.
Режим общего битрейта : Переменный
Общий поток : 8666 Кбит/сек

Аудио #1
Идентификатор : 189 (0xBD)-128 (0x80)
Формат : AC-3
Формат/Информация : Audio Coding 3
Расширение режима : CM (complete main)
Параметр Endianness формата : Big
Режим смешивания : DVD-Video
Продолжительность : 16 м.
Вид битрейта : Постоянный
Битрейт : 192 Кбит/сек
Каналы : 2 канала
Расположение каналов : Front: L R
Частота : 48,0 КГц
Частота кадров : 31,250 кадров/сек (1536 spf)
Метод сжатия : С потерями
Задержка видео : -448 мс.
Размер потока : 22,7 Мбайт (2%)

Аудио #2
Идентификатор : 189 (0xBD)-129 (0x81)
Формат : AC-3
Формат/Информация : Audio Coding 3
Расширение режима : CM (complete main)
Параметр Endianness формата : Big
Режим смешивания : DVD-Video
Продолжительность : 16 м.
Вид битрейта : Постоянный
Битрейт : 448 Кбит/сек
Каналы : 6 каналов
Расположение каналов : Front: L C R, Side: L R, LFE
Частота : 48,0 КГц
Частота кадров : 31,250 кадров/сек (1536 spf)
Метод сжатия : С потерями
Задержка видео : -480 мс.
Размер потока : 52,9 Мбайт (5%)

Аудио #3
Идентификатор : 189 (0xBD)-130 (0x82)
Формат : AC-3
Формат/Информация : Audio Coding 3
Расширение режима : CM (complete main)
Параметр Endianness формата : Big
Режим смешивания : DVD-Video
Продолжительность : 16 м.
Вид битрейта : Постоянный
Битрейт : 192 Кбит/сек
Каналы : 2 канала
Расположение каналов : Front: L R
Частота : 48,0 КГц
Частота кадров : 31,250 кадров/сек (1536 spf)
Метод сжатия : С потерями
Задержка видео : -448 мс.
Размер потока : 22,7 Мбайт (2%)

Аудио #4
Идентификатор : 189 (0xBD)-131 (0x83)
Формат : AC-3
Формат/Информация : Audio Coding 3
Расширение режима : CM (complete main)
Параметр Endianness формата : Big
Режим смешивания : DVD-Video
Продолжительность : 16 м.
Вид битрейта : Постоянный
Битрейт : 192 Кбит/сек
Каналы : 2 канала
Расположение каналов : Front: L R
Частота : 48,0 КГц
Частота кадров : 31,250 кадров/сек (1536 spf)
Метод сжатия : С потерями
Задержка видео : -448 мс.
Размер потока : 22,7 Мбайт (2%)

Аудио #5
Идентификатор : 189 (0xBD)-132 (0x84)
Формат : AC-3
Формат/Информация : Audio Coding 3
Расширение режима : CM (complete main)
Параметр Endianness формата : Big
Режим смешивания : DVD-Video
Продолжительность : 16 м.
Вид битрейта : Постоянный
Битрейт : 384 Кбит/сек
Каналы : 6 каналов
Расположение каналов : Front: L C R, Side: L R, LFE
Частота : 48,0 КГц
Частота кадров : 31,250 кадров/сек (1536 spf)
Метод сжатия : С потерями
Задержка видео : -480 мс.
Размер потока : 45,4 Мбайт (4%)

Текст #1
Идентификатор : 189 (0xBD)-32 (0x20)
Формат : RLE
Формат/Информация : Run-length encoding
Режим смешивания : DVD-Video
Задержка видео : 1 с. 560 мс.

Текст #2
Идентификатор : 189 (0xBD)-33 (0x21)
Формат : RLE
Формат/Информация : Run-length encoding
Режим смешивания : DVD-Video
Задержка видео : 1 с. 560 мс.

Текст #3
Идентификатор : 189 (0xBD)-34 (0x22)
Формат : RLE
Формат/Информация : Run-length encoding
Режим смешивания : DVD-Video
Задержка видео : 1 с. 720 мс.

Текст #4
Идентификатор : 189 (0xBD)-35 (0x23)
Формат : RLE
Формат/Информация : Run-length encoding
Режим смешивания : DVD-Video
Задержка видео : 1 с. 720 мс.

Текст #5
Идентификатор : 189 (0xBD)-36 (0x24)
Формат : RLE
Формат/Информация : Run-length encoding
Режим смешивания : DVD-Video
Задержка видео : 1 с. 360 мс.

Текст #6
Идентификатор : 189 (0xBD)-37 (0x25)
Формат : RLE
Формат/Информация : Run-length encoding
Режим смешивания : DVD-Video
Задержка видео : 1 с. 360 мс.

Текст #7
Идентификатор : 189 (0xBD)-40 (0x28)
Формат : RLE
Формат/Информация : Run-length encoding
Режим смешивания : DVD-Video
Задержка видео : 2 с. 120 мс.

</span></span>
[b]Релиз: Уважаемые пользователи!Найдите пару минут поблагодарить релизера и высказаться в топике раздачи.Ваше мнение - бальзам для раздающего и пища для ума остальным пользователям.<a href="tracker.php?rid=15912358/" class="postLink">Мои раздачи</a>

Внимание! AdBlock блокирует показ скриншотов, все вопросы к разработчикам )))
Трекер:  [ 11-Сен-2016 05:30 ]

  

Скачать .torrent

Размер .torrent файла 41 KB


Размер: 7.88 GB
Хэш (hash) релиза: 0c9cd340ae74feaea7d090585109c05ee749ce10
Подписка на обновления:

Еще никто не оставлял запись к записи скачать торрент Молчание Лорны Le silence de Lorna . Будь первым!

!Обратная связь