Скачать через торрент Бриджит Джонс 3 Bridget Joness Baby Фильм бесплатно в хорошем качестве torrent

Скачивайте на UnionPeer.org фильмы через торрент без регистрации. Новинки кино в хорошем качестве через торрент. На UnionPeer.org можно скачать через торрент фильмы 2014 и 2015 годов. Самые новые фильмы.

Скачать торрент Бриджит Джонс 3 Bridget Joness Baby бесплатно через .torrent фильм мультфильм сериал

Статистика раздачи
Размер:  1.46 GB   |    Зарегистрирован:  7 лет 5 месяцев   |    .torrent скачан:  683 раза   |   
Раздают:  1  
 

Скачать Бриджит Джонс 3 / Bridget Jones's Baby (Шэрон Магуайр) [2016, мелодрама, комедия, CAMRip] через torrent

 
 
Автор Сообщение

Galfimbul

avatar Galfimbul


Бриджит Джонс 3 / Bridget Jones's Baby

Страна: Ирландия Великобритания Франция США
Производство: Universal Pictures, Miramax Films, Studio Canal, Working Title Films
Год выпуска: 2016
Жанр: мелодрама, комедия
Продолжительность: 01:54:18

Режиссер: Шэрон Магуайр
Авторы сценария: Хелен Филдинг, Дэн Мазер, Эмма Томпсон

В ролях: Рене Зеллвегер, Колин Фёрт, Патрик Демпси, Джемма Джонс, Джим Бродбент, Сэлли Филлипс, Джулиан Райнд-Татт, Ширли Хендерсон

Описание: Казалось бы, и карьера — в гору, и квартира — в центре Лондона, но она не была бы Бриджит Джонс, если бы не её способность оказываться не в то время, не в том месте, не с тем мужчиной. И теперь она понятия не имеет, кто отец её будущего ребенка: обаятельный миллиардер или известный адвокат. Одним словом, Бриджит Джонс в очень интересном положении...



Перевод: Профессиональный (полное дублирование)
Субтитры: нет
Качество: CAMRip
Формат: АVI
Видео кодек: XviD
Аудио кодек: АС3
Видео: 720x304 (2.35:1), 29.970 fps, XviD ~1 552 kbps avg
Аудио: 48 kHz, AC3 Dolby Digital, 2/0 (L,R) ch, ~192 kbps

Дата премьеры (мир): 14 сентября 2016
Дата премьеры (РФ): 15 сентября 2016, «UPI»

</a>
General
Complete name : BriDJet.2O16.D.CAMRip.14OOMB.avi
Format : AVI
Format/Info : Audio Video Interleave
File size : 1.46 GiB
Duration : 1h 54mn
Overall bit rate : 1 826 Kbps
Writing application : VirtualDubMod 1.5.10.2 (build 2540/release)
Writing library : VirtualDubMod build 2540/release

Video
ID : 0
Format : MPEG-4 Visual
Format profile : Advanced Simple@L5
Format settings, BVOP : 2
Format settings, QPel : No
Format settings, GMC : No warppoints
Format settings, Matrix : Custom
Codec ID : XVID
Codec ID/Hint : XviD
Duration : 1h 54mn
Bit rate : 1 552 Kbps
Width : 720 pixels
Height : 304 pixels
Display aspect ratio : 2.35:1
Frame rate : 29.970 fps
Color space : YUV
Chroma subsampling : 4:2:0
Bit depth : 8 bits
Scan type : Progressive
Compression mode : Lossy
Bits/(Pixel*Frame) : 0.237
Stream size : 1.24 GiB (85%)
Writing library : XviD 1.2.1 (UTC 2008-12-04)

Audio
ID : 1
Format : AC-3
Format/Info : Audio Coding 3
Mode extension : CM (complete main)
Format settings, Endianness : Big
Codec ID : 2000
Duration : 1h 54mn
Bit rate mode : Constant
Bit rate : 192 Kbps
Channel(s) : 2 channels
Channel positions : Front: L R
Sampling rate : 48.0 KHz
Bit depth : 16 bits
Compression mode : Lossy
Stream size : 157 MiB (11%)
Alignment : Split accross interleaves


Внимание! AdBlock блокирует показ скриншотов, все вопросы к разработчикам )))
Трекер:  [ 16-Сен-2016 22:00 ]

  

Скачать .torrent

Размер .torrent файла 15 KB


Размер: 1.46 GB
Хэш (hash) релиза: f97b3baca644d5d904bd239ed49a354245c03e53
Подписка на обновления:

Торренты, похожие на Бриджит Джонс 3 Bridget Joness Baby скачать торрент

Форум Название Автор Размер S L Добавлен
Зарубежные фильмы до 2016 ·· Бриджит Джонс 3 / Bridget Jones's Baby (Шэрон Магуайр / Sharon Maguire) [2016, Ирландия, Великобритания, Франция, США, Мелодрама, комедия, DVD5 (сжатый)] исх. R2, Dub + Sub Rus + Original Eng Galfimbul 46997749764.38 GB 0 0 1502006770

11:06

6-Авг-17

Зарубежные фильмы до 2016 ·· Бриджит Джонс 3 / Bridget Jones's Baby (Шэрон Магуайр / Sharon Maguire) [2016, Ирландия, Великобритания, Франция, США, Мелодрама, комедия, DVD9] Dub + Sub Rus + Original Eng Galfimbul 83875117297.81 GB 0 0 1501612571

21:36

1-Авг-17

Трейлеры и дополнительные материалы ·· Бриджит Джонс 3 / Bridget Jones's Baby (Шэрон Магуайр) [2016, Мелодрама | Комедия, BDRip 720p] дополнительные материалы Galfimbul 13120590091.22 GB 0 0 1488104119

13:15

26-Фев-17

Зарубежные фильмы до 2016 ·· Бриджит Джонс 3 / Bridget Jones's Baby (Шэрон Магуайр / Sharon Maguire) [2016, Ирландия, Великобритания, Франция, США, мелодрама, комедия, BDRip 720p] Dub (Blu-ray CEE) + Sub Rus, Eng + Original Eng Galfimbul 75749759287.05 GB 0 0 1487260088

18:48

16-Фев-17

Зарубежные фильмы до 2016 ·· Бриджит Джонс 3 / Bridget Jones's Baby (Шэрон Магуайр / Sharon Maguire) [2016, Ирландия, Великобритания, Франция, США, мелодрама, комедия, BDRip 1080p] Dub (Blu-ray CEE) + Sub Rus, Eng + Original Eng Galfimbul 1639789183715.27 GB 0 0 1487260080

18:48

16-Фев-17

Зарубежные фильмы до 2016 ·· Бриджит Джонс 3 / Bridget Jones's Baby (Шэрон Магуайр / Sharon Maguire) [2016, Ирландия, Великобритания, Франция, США, мелодрама, комедия, Blu-ray disc 1080p] Dub (CEE) + Sub Rus, Eng + Original Eng Galfimbul 4879555896445.44 GB 0 0 1487260060

18:47

16-Фев-17

Зарубежные фильмы 2016-2019 (Новинки зарубежного кино) ·· Бриджит Джонс 3 / Bridget Jones's Baby (Шэрон Магуайр) [2016, мелодрама, комедия, BDRip 720p] Лицензия Galfimbul 75749759287.05 GB 0 0 1486294201

14:30

5-Фев-17

Зарубежные фильмы 2016-2019 (Новинки зарубежного кино) ·· Бриджит Джонс 3 / Bridget Jones's Baby (Шэрон Магуайр / Sharon Maguire) [2016, Ирландия, Великобритания, Франция, США, мелодрама, комедия, BDRip-AVC] Dub + Original + Sub Eng Galfimbul 23444412652.18 GB 0 0 1481871374

09:56

16-Дек-16

Зарубежные фильмы 2016-2019 (Новинки зарубежного кино) ·· Бриджит Джонс 3 / Bridget Jones's Baby (Шэрон Магуайр) [2016, мелодрама, комедия, BDRip 720p] iTunes Galfimbul 62213165365.79 GB 0 0 1480682783

15:46

2-Дек-16

Зарубежные фильмы 2016-2019 (Новинки зарубежного кино) ·· Бриджит Джонс 3 / Bridget Jones's Baby (Шэрон Магуайр) [2016, мелодрама, комедия, BDRip 1080p] iTunes Galfimbul 97367643279.07 GB 0 0 1480682643

15:44

2-Дек-16

Зарубежные фильмы 2016-2019 (Новинки зарубежного кино) ·· Бриджит Джонс 3 / Bridget Jones's Baby (Шэрон Магуайр) [2016, мелодрама, комедия, WEB-DL 720p] iTunes Galfimbul 40804864053.8 GB 0 0 1478742047

04:40

10-Ноя-16

Зарубежные фильмы 2016-2019 (Новинки зарубежного кино) ·· Бриджит Джонс 3 / Bridget Jones's Baby (Шэрон Магуайр) [2016, мелодрама, комедия, WEB-DLRip] iTunes Galfimbul 22040391682.05 GB 0 0 1478742039

04:40

10-Ноя-16

Зарубежные фильмы 2016-2019 (Новинки зарубежного кино) ·· Бриджит Джонс 3 / Bridget Jones's Baby (Шэрон Магуайр) [2016, мелодрама, комедия, WEB-DLRip] iTunes Galfimbul 14673346561.37 GB 0 0 1478742033

04:40

10-Ноя-16

Зарубежные фильмы 2016-2019 (Новинки зарубежного кино) ·· Бриджит Джонс 3 / Bridget Jones's Baby (Шэрон Магуайр) [2016, мелодрама, комедия, WEBRip] Line Galfimbul 14674698241.37 GB 0 0 1478486512

05:41

7-Ноя-16

Зарубежные фильмы 2016-2019 (Новинки зарубежного кино) ·· Бриджит Джонс 3 / Bridget Jones's Baby (Шэрон Магуайр) [2016, мелодрама, комедия, WEBRip 720р] Line Galfimbul 41267275983.84 GB 0 0 1478486508

05:41

7-Ноя-16

Зарубежные фильмы 2016-2019 (Новинки зарубежного кино) ·· Бриджит Джонс 3 / Bridget Jones's Baby (Шэрон Магуайр) [2016, мелодрама, комедия, WEBRip 1080р] Line Galfimbul 50690640404.72 GB 0 0 1478486499

05:41

7-Ноя-16

Зарубежные фильмы 2016-2019 (Новинки зарубежного кино) ·· Бриджит Джонс 3 / Bridget Jones's Baby (Шэрон Магуайр) [2016, мелодрама, комедия, WEBRip] Звук с TS Galfimbul 14675742721.37 GB 0 0 1478281401

20:43

4-Ноя-16

Еще никто не оставлял запись к записи скачать торрент Бриджит Джонс 3 Bridget Joness Baby . Будь первым!

!Обратная связь